img image001 image001 image001 image001 image001 image001 image001 image001 image001 image001 image001 image001 image001 image001 image001 image001

Planets Sun Sun Sun
Статистика раздачи
Автор: Nickolas3434 | Размер: 6.67 ГБ | Добавлен: 13 сен 2017
Раздают: 16    Качают: 1
Скачать торрент
Скачать торрент
Описание торрента

СообщениеДобавлено: 13 сен 2017 

Информация о фильме
Название: Деревенщина
Год выхода: 2014
Жанр: Мелодрама
Режиссер: Владимир Устюгов
В ролях: Анна Михайловская, Александр Константинов, Дмитрий Пчела, Елена Бирюкова, Даша Русакова, Виталий Герасимов, Вера Васильева, Евгений Редько, Марина Есипенко, Вероника Вернадская, Ирина Чипиженко, Эрнст Романов
О фильме:
Лида - простая, скромная девушка - живет с матерью в деревне Колпаково и мечтает стать стюардессой. Своего отца она видела лишь однажды - пять лет назад. От той далекой встречи у Лиды остались серебряные сережки - папин подарок - и приглашение приезжать к нему после окончания школы... Когда мать Лиды выходит замуж, девушка понимает, что она лишняя в новой семье, и отправляется в столицу, полная смутных надежд на счастье. Лида попадает в дом к ее отцу - перспективному ученому-химику. Он с радостью пускает героиню в семью, но его рафинированная жена и капризные, избалованные дочки совсем не рады появлению "деревенщины" и намерены избавиться от нее любым способом…

Страна: Россия
Студия: Кинокомпания "Русское", ЗАО "Студия "Гелиос"
Продолжительность: 2 х ~ 01:30:00
Перевод: Не требуется
Файл
Кодек: h.264
Качество: WEB-DLRip 1080p
Видео: MPEG-4 AVC, ~ 5120 Кбит/с, 1920x1080
Звук: Русский (AC3, 2 ch, 256 Кбит/с)
Субтитры: Нет
Семпл
General
Unique ID : 215824733346329610050588536542698633301 (0xA25E54E84446C906A4DE2D7FF0AB7855)
Complete name : D:uTorrentDereventcina.2014.WEB-DLRip.1080p.MediaClubDereventcina.2014.(01.iz.02).WEB-DLRip.1080p.MediaClub.mkv
Format : Matroska
Format version : Version 4 / Version 2
File size : 3.36 GiB
Duration : 1 h 29 min
Overall bit rate : 5 371 kb/s
Encoded date : UTC 2017-09-12 14:52:58
Writing application : mkvmerge v15.0.0 ('Duel with the Devil') 64-bit
Writing library : libebml v1.3.5 + libmatroska v1.4.5
Video
ID : 1
Format : AVC
Format/Info : Advanced Video Codec
Format profile : High@L4
Format settings, CABAC : Yes
Format settings, ReFrames : 4 frames
Codec ID : V_MPEG4/ISO/AVC
Duration : 1 h 29 min
Bit rate : 5 120 kb/s
Width : 1 920 pixels
Height : 1 080 pixels
Display aspect ratio : 16:9
Frame rate mode : Constant
Frame rate : 25.000 FPS
Color space : YUV
Chroma subsampling : 4:2:0
Bit depth : 8 bits
Scan type : Progressive
Bits/(Pixel*Frame) : 0.099
Stream size : 3.20 GiB (95%)
Title : WEB-DLRip by Silverok
Writing library : x264 core 142
Encoding settings : cabac=1 / ref=3 / deblock=1:0:0 / analyse=0x3:0x113 / me=hex / subme=7 / psy=1 / psy_rd=1.00:0.00 / mixed_ref=1 / me_range=16 / chroma_me=1 / trellis=1 / 8x8dct=1 / cqm=0 / deadzone=21,11 / fast_pskip=1 / chroma_qp_offset=-2 / threads=36 / lookahead_threads=6 / sliced_threads=0 / nr=0 / decimate=1 / interlaced=0 / bluray_compat=0 / constrained_intra=0 / bframes=6 / b_pyramid=2 / b_adapt=1 / b_bias=0 / direct=1 / weightb=1 / open_gop=0 / weightp=2 / keyint=50 / keyint_min=26 / scenecut=0 / intra_refresh=0 / rc_lookahead=40 / rc=2pass / mbtree=1 / bitrate=5120 / ratetol=1.0 / qcomp=0.60 / qpmin=0 / qpmax=69 / qpstep=4 / cplxblur=20.0 / qblur=0.5 / vbv_maxrate=7680 / vbv_bufsize=20480 / nal_hrd=none / filler=0 / ip_ratio=1.40 / aq=1:1.00
Default : Yes
Forced : No
Audio
ID : 2
Format : AC-3
Format/Info : Audio Coding 3
Format settings, Endianness : Big
Codec ID : A_AC3
Duration : 1 h 29 min
Bit rate mode : Constant
Bit rate : 256 kb/s
Channel(s) : 2 channels
Channel positions : Front: L R
Sampling rate : 48.0 kHz
Frame rate : 31.250 FPS (1536 spf)
Bit depth : 16 bits
Compression mode : Lossy
Stream size : 164 MiB (5%)
Language : Russian
Service kind : Complete Main
Default : Yes
Forced : No


Релиз от: | Silverok



   Похожие торренты   Торрент   Размер 
В этой теме нет новых непрочитанных сообщений. Деревенщина [01 из 02] (2014) HDTV 1080i от MediaClub

246 | 81

7.39 ГБ

В этой теме нет новых непрочитанных сообщений. Деревенщина [01-02 из 02] (2014) HDTV 1080i от MediaClub

110 | 10

10.65 ГБ

В этой теме нет новых непрочитанных сообщений. Деревенщина [01-02 из 02] (2014) WEB-DLRip от Generalfilm

362 | 37

2.74 ГБ

В этой теме нет новых непрочитанных сообщений. Деревенщина [01 из 02] (2014) SATRip от Files-x

1689 | 257

2.73 ГБ

В этой теме нет новых непрочитанных сообщений. Деревенщина [01-02 из 02] (2014) HDTVRip от Files-x

1424 | 179

2.73 ГБ

В этой теме нет новых непрочитанных сообщений. Врачиха [01-04 из 04] (2014) WEB-DLRip 1080p от MediaClub

2 | 0

13.51 ГБ

В этой теме нет новых непрочитанных сообщений. Другая женщина [01-04 из 04] (2014) WEB-DLRip 1080p от MediaClub

10 | 7

6.72 ГБ




Вы не можете начинать темы
Вы не можете отвечать на сообщения
Вы не можете редактировать свои сообщения
Вы не можете удалять свои сообщения
Вы не можете добавлять вложения

Перейти:  
 Вход
ppkBB3cker v.2 © 2008-2014 @ PPK
[ Time : 0.033s | 19 Queries | GZIP : Off ]

cron