img image001 image001 image001 image001 image001 image001 image001 image001 image001 image001 image001 image001 image001 image001 image001 image001

Planets Sun Sun Sun
Статистика раздачи
Автор: Nickolas3434 | Размер: 2.27 ГБ | Добавлен: 21 сен 2017
Раздают: 2    Качают: 0
Скачать торрент
Скачать торрент
Описание торрента

СообщениеДобавлено: 21 сен 2017 

Мне очень жаль / I'm Sorry
(1 сезон, серии 1-6 из 10)

Перевод: Профессиональный (двухголосый, закадровый) - Ozz
Субтитры: русский, английский
Формат: WEBRip, AVI, XviD, AC3
Страна: США
Режиссер: Дэйл Штерн, Эми Йорк Рубин, Рэйчел Голденберг
Жанр: комедия
Всего серий: 10
Продолжительность: 6 х ~00:23:00
Год выпуска: 2017

В ролях: Том Эверетт Скотт, Оливия Петруччи, Джейсон Манцукас, Андреа Сэвидж, Кэти Бэйкер, Джуди Грир, Линдон Смит, Гэри Энтони Уильямс, Тедди Блум, Эйлин Бердок

Описание: Андреа — комедийный писатель, жена и мама. Она уверена в том, что давно повзрослела и отлично разбирается в жизни. Однако каждый новый день готовит для героини новое испытание на прочность. Вступая в него с показной уверенностью в себе, Андреа часто попадает в комические ситуации, которые лишь обнажают её незрелость.



Видео: 720x400 (16:9), 23.976 fps, XviD ~ 1800 kbps avg, 0.261 bit/pixel
Аудио Rus: 48 kHz, AC3 Dolby Digital, 2/0 (L,R) ch, 192 kbps const
Аудио Eng: 48 kHz, AC3 Dolby Digital, 2/0 (L,R) ch, 192 kbps const

Формат субтитров: SoftSub (srt)

Дополнительно: Названия серий взяты из английского Вики: https://en.wikipedia.org/wiki/I%27m_Sorry_(TV_series)
Реклама: Присутствует звуковая (два раза в начале и конце по 10 сек.)
Присутствует ненормативная лексика!



Сезон 1:
01. Пилот / Pilot, July 12, 2017
02. Дитя расизма / Racist Daughter, July 12, 2017
03. Бес в ребро / Ass Cubes, July 19, 2017
04. Богиня вечеринки / Goddess Party, July 26, 2017
05. Между карьерой и домом / Acts of Service, August 2, 2017
06. Запоздалое прозрение / Too Slow, August 9, 2017
07. Невероятный развод / Divorce Fantasy, August 16, 2017
08. Разные взгляды / Butt Bumpers, August 23, 2017
09. Выходные в одиночестве / Weekend Alone, August 30, 2017
10. Это уже слишком / Off the Charts, September 6, 2017



Внимание! Раздача ведётся путём добавления новых серий; при каждом добавлении создаётся новый торрент. Чтобы начать докачку новой серии, пользователям необходимо сделать следующее:
(1) остановить скачивание,
(2) удалить старый торрент у себя из клиента (старые серии удалять не надо),
(3) скачать новый торрент и запустить его у себя в клиенте вместо старого, при этом указать клиенту путь в старую папку куда и должно происходить скачивание новых серий.

Ваш клиент при этом должен произвести хеширование (проверку) старой папки (если не производит сам - помогите ему сделать это), и будет докачивать только те серии которых у вас ещё нет. Старые серии при этом не удаляются, а продолжают раздаваться!

Eсли вы уже удалили старые серии, то предотвратить повторную закачку старых серий можно, отжав галочку в соответствующих местах при запуске нового торрента. По возможности, желательно не удалять старые серии как можно дольше чтобы релизёр не столько продолжал раздавать старые серии, а смог сконцентрироваться на новых.


Общее
Формат : AVI
Формат/Информация : Audio Video Interleave
Размер файла : 387 Мбайт
Продолжительность : 24 м.
Общий поток : 2198 Кбит/сек
Программа кодирования : VirtualDubModRus 1.5.10.2 (build 2542/release)
Библиотека кодирования : VirtualDubMod build 2542/release

Видео
Идентификатор : 0
Формат : MPEG-4 Visual
Профиль формата : Advanced Simple@L5
Параметр BVOP формата : 1
Параметр QPel формата : Нет
Параметр GMC формата : Без точки перехода
Параметр матрицы формата : Выборочная
Идентификатор кодека : XVID
Идентификатор кодека/Подсказка : XviD
Продолжительность : 24 м.
Битрейт : 1799 Кбит/сек
Ширина : 720 пикселей
Высота : 400 пикселей
Соотношение сторон : 16:9
Частота кадров : 23,976 кадра/сек
Цветовое пространство : YUV
Субдискретизация насыщенности : 4:2:0
Битовая глубина : 8 бит
Тип развёртки : Прогрессивная
Метод сжатия : С потерями
Бит/(Пиксели*Кадры) : 0.261
Размер потока : 317 Мбайт (82%)
Библиотека кодирования : XviD 73

Аудио #1
Идентификатор : 1
Формат : AC-3
Формат/Информация : Audio Coding 3
Расширение режима : CM (complete main)
Параметр Endianness формата : Big
Идентификатор кодека : 2000
Продолжительность : 24 м.
Вид битрейта : Постоянный
Битрейт : 192 Кбит/сек
Каналы : 2 канала
Расположение каналов : Front: L R
Частота : 48,0 КГц
Битовая глубина : 16 бит
Метод сжатия : С потерями
Размер потока : 33,8 Мбайт (9%)
Выравнивание : Разделение по промежуткам
Продолжительность промежутка : 42 мс. (1,00 видеокадр)
Время предзагрузки промежутка : 500 мс.

Аудио #2
Идентификатор : 2
Формат : AC-3
Формат/Информация : Audio Coding 3
Расширение режима : CM (complete main)
Параметр Endianness формата : Big
Идентификатор кодека : 2000
Продолжительность : 24 м.
Вид битрейта : Постоянный
Битрейт : 192 Кбит/сек
Каналы : 2 канала
Расположение каналов : Front: L R
Частота : 48,0 КГц
Битовая глубина : 16 бит
Метод сжатия : С потерями
Размер потока : 33,8 Мбайт (9%)
Выравнивание : Разделение по промежуткам
Продолжительность промежутка : 42 мс. (1,00 видеокадр)
Время предзагрузки промежутка : 500 мс.





   Похожие торренты   Торрент   Размер 
В этой теме нет новых непрочитанных сообщений. Мне очень жаль, 1 сезон 1-6 серия из 10 / I'm Sorry [Ozz] (Дэйл Штерн, Эми Йорк Рубин, Рэйчел Голденберг) [2017, комедия, WEBRip-AVC, P2]

4 | 2

2.27 ГБ

В этой теме нет новых непрочитанных сообщений. Мне очень жаль / Я извиняюсь / I'm Sorry [01x01-06 из 10] (2017) WEBRip-AVC от NewTeam | P2 (Ozz)

15 | 1

2.27 ГБ

В этой теме нет новых непрочитанных сообщений. Мне очень жаль / Я извиняюсь / I'm Sorry [01x01-04 из 05] (2017) WEBRip 720p | Ozz

55 | 6

3.09 ГБ

В этой теме нет новых непрочитанных сообщений. Мне очень жаль / Я извиняюсь / I'm Sorry [01x01-06 из 10] (2017) WEBRip от NewTeam | P2 (Ozz)

19 | 6

2.27 ГБ

В этой теме нет новых непрочитанных сообщений. Ранчо, 2 сезон 1-10 серия из 20 / The Ranch [IdeaFilm] (Дэвид Трейнер) [2017, комедия, WEBRip, Р]

5 | 10

4.16 ГБ

В этой теме нет новых непрочитанных сообщений. Все схвачено, 2 сезон 1-17 серия из 22 / Man with a Plan [IdeaFilm] (Джеймс Берроуз) [2017, Комедия, WEBRip, P]

6 | 6

4.87 ГБ

В этой теме нет новых непрочитанных сообщений. Ранчо, 2 сезон 1-10 серия из 20 / The Ranch [IdeaFilm] (Дэвид Трейнер) [2017, комедия, WEBRip 1080p, Р]

2 | 5

19.21 ГБ




Вы не можете начинать темы
Вы не можете отвечать на сообщения
Вы не можете редактировать свои сообщения
Вы не можете удалять свои сообщения
Вы не можете добавлять вложения

Перейти:  
 Вход
ppkBB3cker v.2 © 2008-2014 @ PPK
[ Time : 0.026s | 18 Queries | GZIP : Off ]

cron