img image001 image001 image001 image001 image001 image001 image001 image001 image001 image001 image001 image001 image001 image001 image001 image001

Planets Sun Sun Sun
Статистика раздачи
Автор: Nickolas3434 | Размер: 2.27 ГБ | Добавлен: 21 сен 2017
Раздают: 4    Качают: 2
Скачать торрент
Скачать торрент
Описание торрента

СообщениеДобавлено: 21 сен 2017 

Мне очень жаль / I'm Sorry
(1 сезон, серии 1-6 из 10)

Перевод: Профессиональный (двухголосый, закадровый) - Ozz
Субтитры: русский, английский
Формат: WEBRip-AVC, MKV, MPEG-4 AVC, AC3
Страна: США
Режиссер: Дэйл Штерн, Эми Йорк Рубин, Рэйчел Голденберг
Жанр: комедия
Всего серий: 10
Продолжительность: 6 х ~00:23:00
Год выпуска: 2017

В ролях: Том Эверетт Скотт, Оливия Петруччи, Джейсон Манцукас, Андреа Сэвидж, Кэти Бэйкер, Джуди Грир, Линдон Смит, Гэри Энтони Уильямс, Тедди Блум, Эйлин Бердок

Описание: Андреа — комедийный писатель, жена и мама. Она уверена в том, что давно повзрослела и отлично разбирается в жизни. Однако каждый новый день готовит для героини новое испытание на прочность. Вступая в него с показной уверенностью в себе, Андреа часто попадает в комические ситуации, которые лишь обнажают её незрелость.



Видео: 1024x576 (16:9), 23.976 fps, MPEG-4 AVC ~ 1808 kbps avg, 0.128 bit/pixel
Аудио Rus: 48 kHz, AC3 Dolby Digital, 2/0 (L,R) ch, 192 kbps const
Аудио Eng: 48 kHz, AC3 Dolby Digital, 2/0 (L,R) ch, 192 kbps const

Формат субтитров: SoftSub (srt)

Дополнительно: Названия серий взяты из английского Вики: https://en.wikipedia.org/wiki/I%27m_Sorry_(TV_series)
Реклама: Присутствует звуковая (два раза в начале и конце по 10 сек.)
Присутствует ненормативная лексика!



Сезон 1:
01. Пилот / Pilot, July 12, 2017
02. Дитя расизма / Racist Daughter, July 12, 2017
03. Бес в ребро / Ass Cubes, July 19, 2017
04. Богиня вечеринки / Goddess Party, July 26, 2017
05. Между карьерой и домом / Acts of Service, August 2, 2017
06. Запоздалое прозрение / Too Slow, August 9, 2017
07. Невероятный развод / Divorce Fantasy, August 16, 2017
08. Разные взгляды / Butt Bumpers, August 23, 2017
09. Выходные в одиночестве / Weekend Alone, August 30, 2017
10. Это уже слишком / Off the Charts, September 6, 2017



Внимание! Раздача ведётся путём добавления новых серий; при каждом добавлении создаётся новый торрент. Чтобы начать докачку новой серии, пользователям необходимо сделать следующее:
(1) остановить скачивание,
(2) удалить старый торрент у себя из клиента (старые серии удалять не надо),
(3) скачать новый торрент и запустить его у себя в клиенте вместо старого, при этом указать клиенту путь в старую папку куда и должно происходить скачивание новых серий.

Ваш клиент при этом должен произвести хеширование (проверку) старой папки (если не производит сам - помогите ему сделать это), и будет докачивать только те серии которых у вас ещё нет. Старые серии при этом не удаляются, а продолжают раздаваться!

Eсли вы уже удалили старые серии, то предотвратить повторную закачку старых серий можно, отжав галочку в соответствующих местах при запуске нового торрента. По возможности, желательно не удалять старые серии как можно дольше чтобы релизёр не столько продолжал раздавать старые серии, а смог сконцентрироваться на новых.


Общее
Формат : Matroska
Версия формата : Version 4 / Version 2
Размер файла : 386 Мбайт
Продолжительность : 24 м.
Общий поток : 2193 Кбит/сек
Дата кодирования : UTC 2017-09-21 11:01:48
Программа кодирования : mkvmerge v15.0.0 ('Duel with the Devil') 64-bit
Библиотека кодирования : libebml v1.3.5 + libmatroska v1.4.5
DURATION : 00:24:30.134000000
NUMBER_OF_FRAMES : 652
NUMBER_OF_BYTES : 21645
_STATISTICS_WRITING_APP : mkvmerge v15.0.0 ('Duel with the Devil') 64-bit
_STATISTICS_WRITING_DATE_UTC : 2017-09-21 11:01:48
_STATISTICS_TAGS : BPS DURATION NUMBER_OF_FRAMES NUMBER_OF_BYTES

Видео
Идентификатор : 1
Формат : AVC
Формат/Информация : Advanced Video Codec
Профиль формата :
Параметр CABAC формата : Да
Параметр ReFrames формата : 10 кадров
Идентификатор кодека : V_MPEG4/ISO/AVC
Продолжительность : 24 м.
Битрейт : 1808 Кбит/сек
Ширина : 1024 пикселя
Высота : 576 пикселей
Соотношение сторон : 16:9
Режим частоты кадров : Постоянный
Частота кадров : 23,976 кадра/сек
Цветовое пространство : YUV
Субдискретизация насыщенности : 4:2:0
Битовая глубина : 8 бит
Тип развёртки : Прогрессивная
Бит/(Пиксели*Кадры) : 0.128
Размер потока : 311 Мбайт (80%)
Библиотека кодирования : x264 core 130 r2273 b3065e6
Настройки программы : cabac=1 / ref=10 / deblock=1:-2:-1 / analyse=0x3:0x113 / me=umh / subme=10 / psy=1 / psy_rd=1.00:0.00 / mixed_ref=1 / me_range=32 / chroma_me=1 / trellis=2 / 8x8dct=1 / cqm=0 / deadzone=21,11 / fast_pskip=1 / chroma_qp_offset=-2 / threads=12 / lookahead_threads=2 / sliced_threads=0 / nr=0 / decimate=0 / interlaced=0 / bluray_compat=0 / constrained_intra=0 / bframes=8 / b_pyramid=2 / b_adapt=2 / b_bias=0 / direct=3 / weightb=1 / open_gop=0 / weightp=2 / keyint=250 / keyint_min=25 / scenecut=40 / intra_refresh=0 / rc=2pass / mbtree=0 / bitrate=1808 / ratetol=1.0 / qcomp=0.60 / qpmin=0 / qpmax=69 / qpstep=4 / cplxblur=20.0 / qblur=0.5 / ip_ratio=1.40 / pb_ratio=1.30 / aq=1:1.00
Язык : English
Default : Да
Forced : Нет

Аудио #1
Идентификатор : 2
Формат : AC-3
Формат/Информация : Audio Coding 3
Расширение режима : CM (complete main)
Параметр Endianness формата : Big
Идентификатор кодека : A_AC3
Продолжительность : 24 м.
Вид битрейта : Постоянный
Битрейт : 192 Кбит/сек
Каналы : 2 канала
Расположение каналов : Front: L R
Частота : 48,0 КГц
Битовая глубина : 16 бит
Метод сжатия : С потерями
Размер потока : 33,8 Мбайт (9%)
Заголовок : DVO Ozz-tv
Язык : Russian
Default : Да
Forced : Нет

Аудио #2
Идентификатор : 3
Формат : AC-3
Формат/Информация : Audio Coding 3
Расширение режима : CM (complete main)
Параметр Endianness формата : Big
Идентификатор кодека : A_AC3
Продолжительность : 24 м.
Вид битрейта : Постоянный
Битрейт : 192 Кбит/сек
Каналы : 2 канала
Расположение каналов : Front: L R
Частота : 48,0 КГц
Битовая глубина : 16 бит
Метод сжатия : С потерями
Размер потока : 33,8 Мбайт (9%)
Язык : English
Default : Нет
Forced : Нет

Текст #1
Идентификатор : 4
Формат : UTF-8
Идентификатор кодека : S_TEXT/UTF8
Идентификатор кодека/Информация : UTF-8 Plain Text
Язык : Russian
Default : Нет
Forced : Нет

Текст #2
Идентификатор : 5
Формат : UTF-8
Идентификатор кодека : S_TEXT/UTF8
Идентификатор кодека/Информация : UTF-8 Plain Text
Язык : English
Default : Нет
Forced : Нет





   Похожие торренты   Торрент   Размер 
В этой теме нет новых непрочитанных сообщений. Мне очень жаль, 1 сезон 1-6 серия из 10 / I'm Sorry [Ozz] (Дэйл Штерн, Эми Йорк Рубин, Рэйчел Голденберг) [2017, комедия, WEBRip, P2]

2 | 0

2.27 ГБ

В этой теме нет новых непрочитанных сообщений. Мне очень жаль / Я извиняюсь / I'm Sorry [01x01-06 из 10] (2017) WEBRip-AVC от NewTeam | P2 (Ozz)

15 | 1

2.27 ГБ

В этой теме нет новых непрочитанных сообщений. Мне очень жаль / Я извиняюсь / I'm Sorry [01x01-06 из 10] (2017) WEBRip от NewTeam | P2 (Ozz)

19 | 6

2.27 ГБ

В этой теме нет новых непрочитанных сообщений. Мне очень жаль / Я извиняюсь / I'm Sorry [01x01-04 из 05] (2017) WEBRip 720p | Ozz

55 | 6

3.09 ГБ

В этой теме нет новых непрочитанных сообщений. Все схвачено, 2 сезон 1-17 серия из 22 / Man with a Plan [IdeaFilm] (Джеймс Берроуз) [2017, Комедия, WEBRip, P]

4 | 6

4.87 ГБ

В этой теме нет новых непрочитанных сообщений. Ранчо, 2 сезон 1-10 серия из 20 / The Ranch [IdeaFilm] (Дэвид Трейнер) [2017, комедия, WEBRip, Р]

5 | 10

4.16 ГБ

В этой теме нет новых непрочитанных сообщений. Все схвачено, 2 сезон 1-17 серия из 22 / Man with a Plan [IdeaFilm] (Джеймс Берроуз) [2017, Комедия, WEBRip 1080p, P]

8 | 10

19.54 ГБ




Вы не можете начинать темы
Вы не можете отвечать на сообщения
Вы не можете редактировать свои сообщения
Вы не можете удалять свои сообщения
Вы не можете добавлять вложения

Перейти:  
 Вход
ppkBB3cker v.2 © 2008-2014 @ PPK
[ Time : 4.171s | 16 Queries | GZIP : Off ]

cron