img image001 image001 image001 image001 image001 image001 image001 image001 image001 image001 image001 image001 image001 image001 image001

Planets Sun Sun Sun
Статистика раздачи
Автор: Nickolas3434 | Размер: 66.53 ГБ | Добавлен: 24 сен 2017
Раздают: 12    Качают: 8
Скачать торрент
Скачать торрент
Описание торрента

СообщениеДобавлено: 24 сен 2017 

Информация о фильме
Название: Нити судьбы
Год выхода: 2016
Жанр: Мелодрама
Режиссер: Александр Тименко, Мария Ткачёва, Ева Стрельникова
В ролях: Мила Сивацкая, Евгения Розанова, Денис Васильев, Анна Адамович, Олег Гаас, Валерий Афанасьев, Ольга Сумская, Кирилл Жандаров, Дмитрий Суржиков, Олеся Жураковская, Виктор Сарайкин, Нина Касторф, Фёдор Гуринец, Оксана Жданова, Полина Носыхина, Ольга Морозова
О фильме:
История о двух сёстрах, которые после смерти родителей оказались в разных семьях. Катя выросла в доме родного деда в богатстве и благополучии, в то время как её младшая сестра Ольга – в крайней бедности и лишениях. Оля попала под колёса машины и потеряла память. А водитель, чтобы скрыть преступление, взял девочку в свою семью на правах «приживалки» и дал ей новое имя. Однако спустя много лет жизнь снова сводит родных сестёр вместе, но уже как соперниц, влюблённых в одного и того же мужчину. Узнают ли Катя и Оля друг друга? И кого из них по-настоящему любит Вадим? Коварные интриги и семейные тайны, любовь и ненависть, жажда мести и прощение, борьба за жизнь... Какие ещё испытания подготовила для них судьба?

Страна: Россия, Украина
Студия: Компания "FILM.UA"
Продолжительность: 40 х ~ 00:45:00
Перевод: Не требуется
Файл
Кодек: h.264
Качество: WEB-DLRip 1080p
Видео: MPEG-4 AVC, ~ 5120 Кбит/с, 1920x1080
Звук: Русский (AAC, 2 ch, 256 Кбит/с)
Субтитры: Нет
Семпл
General
Unique ID : 178994581836479906968192932981846725530 (0x86A91A3DB7047DA3B5AD873A4BCE539A)
Complete name : D:uTorrentNiti.sudby.2016.WEB-DLRip.1080p.MediaClubNiti.sudby.2016.(01.iz.40).WEB-DLRip.1080p.MediaClub.mkv
Format : Matroska
Format version : Version 4 / Version 2
File size : 1.73 GiB
Duration : 46 min 10 s
Overall bit rate : 5 355 kb/s
Encoded date : UTC 2017-09-21 08:27:00
Writing application : mkvmerge v15.0.0 ('Duel with the Devil') 64-bit
Writing library : libebml v1.3.5 + libmatroska v1.4.5
Video
ID : 1
Format : AVC
Format/Info : Advanced Video Codec
Format profile : High@L4
Format settings, CABAC : Yes
Format settings, ReFrames : 4 frames
Codec ID : V_MPEG4/ISO/AVC
Duration : 46 min 10 s
Bit rate : 5 120 kb/s
Width : 1 920 pixels
Height : 1 080 pixels
Display aspect ratio : 16:9
Frame rate mode : Constant
Frame rate : 25.000 FPS
Color space : YUV
Chroma subsampling : 4:2:0
Bit depth : 8 bits
Scan type : Progressive
Bits/(Pixel*Frame) : 0.099
Stream size : 1.64 GiB (95%)
Title : WEB-DLRip by Silverok
Writing library : x264 core 142
Encoding settings : cabac=1 / ref=3 / deblock=1:0:0 / analyse=0x3:0x113 / me=hex / subme=7 / psy=1 / psy_rd=1.00:0.00 / mixed_ref=1 / me_range=16 / chroma_me=1 / trellis=1 / 8x8dct=1 / cqm=0 / deadzone=21,11 / fast_pskip=1 / chroma_qp_offset=-2 / threads=36 / lookahead_threads=6 / sliced_threads=0 / nr=0 / decimate=1 / interlaced=0 / bluray_compat=0 / constrained_intra=0 / bframes=6 / b_pyramid=2 / b_adapt=1 / b_bias=0 / direct=1 / weightb=1 / open_gop=0 / weightp=2 / keyint=50 / keyint_min=26 / scenecut=0 / intra_refresh=0 / rc_lookahead=40 / rc=2pass / mbtree=1 / bitrate=5120 / ratetol=1.0 / qcomp=0.60 / qpmin=0 / qpmax=69 / qpstep=4 / cplxblur=20.0 / qblur=0.5 / vbv_maxrate=7680 / vbv_bufsize=20480 / nal_hrd=none / filler=0 / ip_ratio=1.40 / aq=1:1.00
Language : Russian
Default : Yes
Forced : No
Audio
ID : 2
Format : AAC
Format/Info : Advanced Audio Codec
Format profile : LC
Codec ID : A_AAC
Duration : 46 min 10 s
Bit rate : 256 kb/s
Channel(s) : 2 channels
Channel positions : Front: L R
Sampling rate : 48.0 kHz
Frame rate : 46.875 FPS (1024 spf)
Compression mode : Lossy
Stream size : 84.5 MiB (5%)
Language : Russian
Default : Yes
Forced : No


Релиз от: | Silverok



   Похожие торренты   Торрент   Размер 
В этой теме нет новых непрочитанных сообщений. Нити судьбы [01-02 из 40] (2016) DVB от Files-x

2 | 2

2.57 ГБ

В этой теме нет новых непрочитанных сообщений. Нити судьбы [01-02 из 40] (2016) SATRip от Files-x

4 | 0

1.17 ГБ

В этой теме нет новых непрочитанных сообщений. Нити судьбы [01 из 40] (2016) SATRip-AVC от Files-x

0 | 0

1.12 ГБ

В этой теме нет новых непрочитанных сообщений. Нити судьбы [01 из 40] (2016) SATRip-AVC от Files-x

0 | 0

2.15 ГБ

В этой теме нет новых непрочитанных сообщений. Нити судьбы [01-28 из 40] (2016) HDTVRip от GeneralFilm

4 | 13

15.06 ГБ

В этой теме нет новых непрочитанных сообщений. Нити судьбы [01-19 из 40] (2016) HDTVRip-AVC от GeneralFilm

1 | 2

19.05 ГБ

В этой теме нет новых непрочитанных сообщений. Нити судьбы [01-19 из 40] (2016) HDTV 1080i от GeneralFilm

4 | 7

65.66 ГБ




Вы не можете начинать темы
Вы не можете отвечать на сообщения
Вы не можете редактировать свои сообщения
Вы не можете удалять свои сообщения
Вы не можете добавлять вложения

Перейти:  
Для Мосгорсуда, Роскомнадзора и рекламодателей: mosgorsud-torrent[собачка]yandex.ru
 Вход
ppkBB3cker v.2 © 2008-2014 @ PPK
[ Time : 1.441s | 19 Queries | GZIP : Off ]

cron