img image001 image001 image001 image001 image001 image001 image001 image001 image001 image001 image001 image001 image001 image001 image001

Planets Sun Sun Sun
Статистика раздачи
Автор: Nickolas3434 | Размер: 1.2 ГБ | Добавлен: 10 окт 2017
Раздают: 0    Качают: 0
Скачать торрент
Скачать торрент
Описание торрента

СообщениеДобавлено: 10 окт 2017 

Название: Пожарные Чикаго / Чикаго в Огне
Оригинальное название: Chicago Fire
Год выхода: 2017
Страна: США
Жанр: Драма
Режиссер: Джо Чаппелль
В ролях: Джесси Спенсер, Тейлор Кинни, Имонн Уолкер, Моника Реймунд, Лорен Джерман, Чарли Барнетт, Дэвид Эйденберг, Тери Ривз, Юрий Сардаров, Мэтт Галлини
Описание: Сериал рассказывает о самой тяжелой и опасной работе — пожарных и спасателей чикагского отделения Firehouse 51. Несмотря на повседневные геройства мужчин и женщин, их огромная самоотдача приводит к личным потерям. Главный герой Мэтью Кейси, прирожденный лидер и настоящий пожарный. Однако расставание с девушкой заставляет его взглянуть по-новому на многие вещи. Кроме этого, Кейси постоянно находится в конфронтации с другим членом своей команды — лейтенантом Келли Северайдом.

Качество: WEBRip 1080p
Кодек: AVC (h264), High@L4.1
Видео: 1920x1080 (1.77:1), 23.976 fps, 4000 kbps
Аудио: Rus / 48 kHz, MP3, stereo, 160 kbps
Продолжительность: 00:41:22
Перевод: Любительский (одноголосный) - Денис Шадинский
Внимание! Присутствует реклама!
General
Complete name : Пожарные Чикаго 6х02 Шадинский.avi
Format : AVI
Format/Info : Audio Video Interleave
File size : 1.20 GiB
Duration : 41 min 22 s
Overall bit rate : 4 137 kb/s
Writing library : VirtualDub build 35576/release
Video
ID : 0
Format : AVC
Format/Info : Advanced Video Codec
Format profile : High@L4.1
Format settings : CABAC / 3 Ref Frames
Format settings, CABAC : Yes
Format settings, RefFrames : 3 frames
Codec ID : H264
Duration : 41 min 22 s
Bit rate : 4 000 kb/s
Width : 1 920 pixels
Height : 1 080 pixels
Display aspect ratio : 16:9
Frame rate : 25.000 FPS
Color space : YUV
Chroma subsampling : 4:2:0
Bit depth : 8 bits
Scan type : Progressive
Bits/(Pixel*Frame) : 0.077
Stream size : 1.15 GiB (96%)
Writing library : x264 core 122 r2184bm 5c85e0a
Encoding settings : cabac=1 / ref=3 / deblock=1:-1:-1 / analyse=0x3:0x113 / me=hex / subme=7 / psy=1 / psy_rd=1.00:0.15 / mixed_ref=1 / me_range=16 / chroma_me=1 / trellis=1 / 8x8dct=1 / cqm=0 / deadzone=21,11 / fast_pskip=1 / chroma_qp_offset=-3 / threads=8 / sliced_threads=1 / slices=8 / nr=0 / decimate=1 / interlaced=0 / bluray_compat=0 / constrained_intra=0 / bframes=0 / weightp=2 / keyint=250 / keyint_min=25 / scenecut=40 / intra_refresh=0 / rc=abr / mbtree=0 / bitrate=4000 / ratetol=1.0 / qcomp=0.60 / qpmin=0 / qpmax=69 / qpstep=4 / ip_ratio=1.40 / aq=1:1.00
Audio
ID : 1
Format : MPEG Audio
Format version : Version 1
Format profile : Layer 3
Format settings : Joint stereo
Mode : Joint stereo
Codec ID : 55
Codec ID/Hint : MP3
Duration : 41 min 22 s
Bit rate mode : Constant
Bit rate : 160 kb/s
Channel(s) : 2 channels
Sampling rate : 48.0 kHz
Compression mode : Lossy
Stream size : 47.4 MiB (4%)
Alignment : Split accross interleaves
Interleave, duration : 40 ms (1.00 video frame)
Interleave, preload duration : 500 ms



   Похожие торренты   Торрент   Размер 
В этой теме нет новых непрочитанных сообщений. Пожарные Чикаго / Чикаго в Огне / Chicago Fire [06x01-03 из 23] (2017) WEB-DL 1080p | По версии Шадинского

6 | 12

10.19 ГБ

В этой теме нет новых непрочитанных сообщений. Пожарные Чикаго / Чикаго в Огне / Chicago Fire [06x01-05 из 23] (2017) WEB-DL 1080p | По версии Шадинского

0 | 0

16.32 ГБ

В этой теме нет новых непрочитанных сообщений. Пожарные Чикаго / Чикаго в Огне / Chicago Fire [06x01-06 из 23] (2017) WEB-DL 1080p | По версии Шадинского

1 | 7

19.64 ГБ

В этой теме нет новых непрочитанных сообщений. Пожарные Чикаго / Чикаго в Огне / Chicago Fire [06x01 из 23] (2017) WEB-DL 1080p | По версии Шадинского

0 | 0

3.51 ГБ

В этой теме нет новых непрочитанных сообщений. Пожарные Чикаго / Чикаго в Огне / Chicago Fire [06x01-04 из 23] (2017) WEB-DL 1080p | По версии Шадинского

0 | 0

13.14 ГБ

В этой теме нет новых непрочитанных сообщений. Пожарные Чикаго / Чикаго в Огне / Chicago Fire [06x01-02 из 23] (2017) WEB-DLRip 1080p | По версии Шадинского

0 | 0

6.97 ГБ

В этой теме нет новых непрочитанных сообщений. Пожарные Чикаго / Чикаго в Огне / Chicago Fire [06х01 из 23] (2017) WEB-DLRip от MegaPeer | По версии Шадинского

54 | 5

579.69 МБ




Вы не можете начинать темы
Вы не можете отвечать на сообщения
Вы не можете редактировать свои сообщения
Вы не можете удалять свои сообщения
Вы не можете добавлять вложения

Перейти:  
Для Мосгорсуда, Роскомнадзора и рекламодателей: mosgorsud-torrent[собачка]yandex.ru
 Вход
ppkBB3cker v.2 © 2008-2014 @ PPK
[ Time : 0.044s | 18 Queries | GZIP : Off ]

cron