img image001 image001 image001 image001 image001 image001 image001 image001 image001 image001 image001 image001 image001 image001 image001 image001

Planets Sun Sun Sun
Статистика раздачи
Автор: Nickolas3434 | Размер: 6.93 ГБ | Добавлен: 22 окт 2017
Раздают: 14    Качают: 1
Скачать торрент
Скачать торрент
Описание торрента

СообщениеДобавлено: 22 окт 2017 

Информация о фильме
Название: Бариста
Год выхода: 2015
Жанр: Детектив, мелодрама
Режиссер: Александр Касаткин
В ролях: Полина Сыркина, Анатолий Лобоцкий, Владимир Мишуков, Вероника Пляшкевич, Андрей Сенькин, Иван Стрельцов, Николай Зимич, Татьяна Хоружая
О фильме:
Всё, что Лера умела — это варить непревзойденный кофе. И даже в недорогое сетевое кафе люди приходили попробовать удивительный напиток. Жизнь её текла спокойно и размеренно, пока в кафе не появился респектабельный господин, показавшийся смутно знакомым… Он предложил Лере совсем иную жизнь. Вскоре мужчина погиб в двух шагах от кафе, где работала Лера. И с этого момента её жизнь поменялась — кто-то явно пытается её убить…

Страна: Россия
Студия: Паламеда Продакшн
Продолжительность: 2 х ~ 01:32:00
Перевод: Не требуется
Файл
Кодек: h.264
Качество: WEB-DLRip 1080p
Видео: MPEG-4 AVC, ~ 5120 Кбит/с, 1920x1080, 25,000 кадр/с
Звук: Русский (AC3, 2 ch, 256 Кбит/с)
Субтитры: Нет
Семпл
General
Unique ID : 198926598541052882929843165826074046461 (0x95A7DE898FE65857A7ABF33DEF086FFD)
Complete name : D:uTorrentBarista.2015.WEB-DLRip.1080p.MediaClubBarista.(01.iz.02).2015.WEB-DLRip.1080p.MediaClub.mkv
Format : Matroska
Format version : Version 4 / Version 2
File size : 3.44 GiB
Duration : 1 h 31 min
Overall bit rate : 5 376 kb/s
Encoded date : UTC 2017-10-21 13:46:16
Writing application : mkvmerge v17.0.0 ('Be Ur Friend') 64-bit
Writing library : libebml v1.3.5 + libmatroska v1.4.8
Video
ID : 1
Format : AVC
Format/Info : Advanced Video Codec
Format profile : High@L4
Format settings, CABAC : Yes
Format settings, ReFrames : 4 frames
Format settings, GOP : M=7, N=50
Codec ID : V_MPEG4/ISO/AVC
Duration : 1 h 31 min
Bit rate : 5 120 kb/s
Width : 1 920 pixels
Height : 1 080 pixels
Display aspect ratio : 16:9
Frame rate mode : Constant
Frame rate : 25.000 FPS
Color space : YUV
Chroma subsampling : 4:2:0
Bit depth : 8 bits
Scan type : Progressive
Bits/(Pixel*Frame) : 0.099
Stream size : 3.28 GiB (95%)
Title : WEB-DLRip by Silverok
Writing library : x264 core 142
Encoding settings : cabac=1 / ref=3 / deblock=1:0:0 / analyse=0x3:0x113 / me=hex / subme=7 / psy=1 / psy_rd=1.00:0.00 / mixed_ref=1 / me_range=16 / chroma_me=1 / trellis=1 / 8x8dct=1 / cqm=0 / deadzone=21,11 / fast_pskip=1 / chroma_qp_offset=-2 / threads=108 / lookahead_threads=8 / sliced_threads=0 / nr=0 / decimate=1 / interlaced=0 / bluray_compat=0 / constrained_intra=0 / bframes=6 / b_pyramid=2 / b_adapt=1 / b_bias=0 / direct=1 / weightb=1 / open_gop=0 / weightp=2 / keyint=50 / keyint_min=26 / scenecut=0 / intra_refresh=0 / rc_lookahead=40 / rc=2pass / mbtree=1 / bitrate=5120 / ratetol=1.0 / qcomp=0.60 / qpmin=0 / qpmax=69 / qpstep=4 / cplxblur=20.0 / qblur=0.5 / vbv_maxrate=7680 / vbv_bufsize=20480 / nal_hrd=none / filler=0 / ip_ratio=1.40 / aq=1:1.00
Default : Yes
Forced : No
Audio
ID : 2
Format : AC-3
Format/Info : Audio Coding 3
Format settings, Endianness : Big
Codec ID : A_AC3
Duration : 1 h 31 min
Bit rate mode : Constant
Bit rate : 256 kb/s
Channel(s) : 2 channels
Channel positions : Front: L R
Sampling rate : 48.0 kHz
Frame rate : 31.250 FPS (1536 spf)
Bit depth : 16 bits
Compression mode : Lossy
Stream size : 168 MiB (5%)
Language : Russian
Service kind : Complete Main
Default : Yes
Forced : No


Релиз от: | Silverok



   Похожие торренты   Торрент   Размер 
В этой теме нет новых непрочитанных сообщений. Бариста [01-02 из 02] (2015) HDTVRip от MediaClub | КПК

523 | 24

816.27 МБ

В этой теме нет новых непрочитанных сообщений. Бариста [01-02 из 02] (2015) HDTVRip 720p от MediaClub

84 | 5

7.39 ГБ

В этой теме нет новых непрочитанных сообщений. Бариста [01-04 из 4] (2015) DVB от Files-x

208 | 21

3.61 ГБ

В этой теме нет новых непрочитанных сообщений. Бариста [01-02 из 02] (2015) HDTVRip 720p

178 | 18

2.78 ГБ

В этой теме нет новых непрочитанных сообщений. Бариста [01 из 02] (2015) HDTVRip от Files-x

612 | 69

2.74 ГБ

В этой теме нет новых непрочитанных сообщений. А у нас во дворе [01-12 из 12] (2015) WEB-DLRip (1080p) от MediaClub

2 | 1

23.5 ГБ

В этой теме нет новых непрочитанных сообщений. Северо-Юг (2015) WEB-DLRip 1080p от MediaClub

16 | 1

3.77 ГБ




Вы не можете начинать темы
Вы не можете отвечать на сообщения
Вы не можете редактировать свои сообщения
Вы не можете удалять свои сообщения
Вы не можете добавлять вложения

Перейти:  
 Вход
ppkBB3cker v.2 © 2008-2014 @ PPK
[ Time : 0.029s | 17 Queries | GZIP : Off ]

cron