img image001 image001 image001 image001 image001 image001 image001 image001 image001 image001 image001 image001 image001 image001 image001

Planets Sun Sun Sun
Статистика раздачи
Автор: Nickolas3434 | Размер: 32.73 ГБ | Добавлен: 16 ноя 2017
Раздают: 2    Качают: 24
Скачать торрент
Скачать торрент
Описание торрента

СообщениеДобавлено: 16 ноя 2017 

Информация о фильме
Название: Чужестранка
Оригинальное название: Outlander
Год выхода: 2017
Жанр: Фантастика, драма, мелодрама
Режиссер: Анна Ферстер, Ричард Кларк, Брайан Келли
В ролях: Каитриона Бэлфи, Сэм Юэн, Дункан Лакруа, Гари Льюис, Грэм Мак Тавиш, Тобиаш Мензес, Стивен Уолтерс, Аннет Бэдленд, Родерик Джилкисон.
О фильме:
Англия, вскоре после окончания Второй мировой войны. У Клэр, проработавшей операционной медсестрой все военные годы, наконец появилась возможность воссоединиться с мужем - ученым и строить совместные планы на будущее их семьи. Одним ранним утром гроза застигает ее во время прогулки среди камней, которые местные ведуньи называют мистическими. Во время очередного разряда молнии, она неожиданно переносится в прошлое, в Шотландию середины 18 – ого столетия. Теперь единственным смыслом жизни женщины стала цель вернуться к мужу, в свое время, но для этого сначала необходимо было просто выжить в очень непростых условиях, среди вечно воюющих и отнюдь не цивилизованных мужчин. Так, ради собственной безопасности, ей приходится выйти замуж за влюбленного в нее шотландского рыцаря старинного благородного рода. Однако, когда, всем сердцем желая Клэр помочь, он находит возможность вернуть ее в будущее, она начинает сомневаться в своем желании, ведь с Джейми их начинают связывать поистине крепкие чувства. Она опять стоит у мистических камней. Какую жизнь ей выбрать?

Страна: США
Студия: Left Bank Productions, Sony Pictures Television
Продолжительность: ~ 0:55:00 серия
Перевод:
Профессиональный(многоголосый закадровый) | NewStudio
Любительский (многоголосый закадровый) | BaibaKo
Файл
Кодек: MPEG-4 AVC/H.264
Качество: WEB-DL 1080p
Видео: 1920x1080 (16:9), 23,976 fps, ~6200 kbps, 0.125 bit/pixel
Звук:
Аудио rus: AC3, 48 kHz, 6 ch, 640 kbps | NewStudio
Аудио rus: AC3, 48 kHz, 6 ch, 640 kbps | BaibaKo
Аудио eng: AC3, 48 kHz, 6 ch, 640 kbps
Субтитры: русские (CaptainNEMO), английские
Реклама: отсутствует
Семпл
Релиз: Grandfather61
Работа со звуком: Grandfather61
Перевод субтитров: CaptainNEMO
General
Unique ID : 221885375934112129405482960520923152080 (0xA6ED91A83C29B24885037FA891FD7ED0)
Complete name : G:FilmsOutlander.S03.1080p.WEBRip.2xRus.EngOutlander.S03E01.1080p.WEB-DL.2xRus.Eng.mkv
Format : Matroska
Format version : Version 4 / Version 2
File size : 3.15 GiB
Duration : 54mn 19s
Overall bit rate mode : Variable
Overall bit rate : 8 292 Kbps
Encoded date : UTC 2017-09-12 05:42:02
Writing application : mkvmerge v15.0.0 ('Duel with the Devil') 64-bit
Writing library : libebml v1.3.5 + libmatroska v1.4.5
Video
ID : 1
Format : AVC
Format/Info : Advanced Video Codec
Format profile : High@L4
Format settings, CABAC : Yes
Format settings, ReFrames : 4 frames
Codec ID : V_MPEG4/ISO/AVC
Duration : 54mn 19s
Bit rate mode : Variable
Bit rate : 6 207 Kbps
Maximum bit rate : 15.0 Mbps
Width : 1 920 pixels
Height : 1 080 pixels
Display aspect ratio : 16:9
Frame rate mode : Constant
Frame rate : 23.976 (24000/1001) fps
Color space : YUV
Chroma subsampling : 4:2:0
Bit depth : 8 bits
Scan type : Progressive
Bits/(Pixel*Frame) : 0.125
Stream size : 2.36 GiB (75%)
Language : English
Default : Yes
Forced : No
Color range : Limited
Color primaries : BT.709
Transfer characteristics : BT.709
Matrix coefficients : BT.709
Audio #1
ID : 2
Format : AC-3
Format/Info : Audio Coding 3
Mode extension : CM (complete main)
Format settings, Endianness : Big
Codec ID : A_AC3
Duration : 54mn 19s
Bit rate mode : Constant
Bit rate : 640 Kbps
Channel(s) : 6 channels
Channel positions : Front: L C R, Side: L R, LFE
Sampling rate : 48.0 KHz
Frame rate : 31.250 fps (1536 spf)
Compression mode : Lossy
Stream size : 249 MiB (8%)
Title : NewStudio
Language : Russian
Default : Yes
Forced : No
Audio #2
ID : 3
Format : AC-3
Format/Info : Audio Coding 3
Mode extension : CM (complete main)
Format settings, Endianness : Big
Codec ID : A_AC3
Duration : 54mn 19s
Bit rate mode : Constant
Bit rate : 640 Kbps
Channel(s) : 6 channels
Channel positions : Front: L C R, Side: L R, LFE
Sampling rate : 48.0 KHz
Frame rate : 31.250 fps (1536 spf)
Compression mode : Lossy
Stream size : 249 MiB (8%)
Title : BaibaKo
Language : Russian
Default : No
Forced : No
Audio #3
ID : 4
Format : AC-3
Format/Info : Audio Coding 3
Mode extension : CM (complete main)
Format settings, Endianness : Big
Codec ID : A_AC3
Duration : 54mn 19s
Bit rate mode : Constant
Bit rate : 640 Kbps
Channel(s) : 6 channels
Channel positions : Front: L C R, Side: L R, LFE
Sampling rate : 48.0 KHz
Frame rate : 31.250 fps (1536 spf)
Compression mode : Lossy
Stream size : 249 MiB (8%)
Title : eng
Language : English
Default : No
Forced : No
Text #1
ID : 5
Format : UTF-8
Codec ID : S_TEXT/UTF8
Codec ID/Info : UTF-8 Plain Text
Title : CaptainNEMO
Language : Russian
Default : No
Forced : No
Text #2
ID : 6
Format : UTF-8
Codec ID : S_TEXT/UTF8
Codec ID/Info : UTF-8 Plain Text
Title : eng
Language : English
Default : No
Forced : No

Внимание! Раздача ведётся путём добавления новых серий; при каждом добавлении создётся новый торрент. Чтобы начать докачку новой серии, пользователям необходимо сделать следующее:
Остановить скачивание.
Удалить старый торрент у себя из клиента (старые серии удалять не надо).
Скачать новый торрент и запустить его у себя в клиенте вместо старого, при этом указать клиенту путь в старую папку куда и должно происходить скачивание новых серий.
Ваш клиент при этом должен произвести хеширование (проверку) старой папки (если не производит сам - помогите ему сделать это), и будет докачивать только те серии которых у вас ещё нет. Старые серии при этом не удаляются, а продолжают раздаваться!
Eсли вы уже удалили старые серии, то предотвратить повторную закачку старых серий можно, отжав галочку в соответсвующих местах при запуске нового торрента. По возможности, желательно не удалять старые серии как можно дольше чтобы релизёр не столько продолжал раздавать старые серии, а смог сконцентрироваться на новых.

Релиз от: Grandfather61



   Похожие торренты   Торрент   Размер 
В этой теме нет новых непрочитанных сообщений. Чужестранка / Outlander [03x01-08 из 13] (2017) WEB-DL 1080p | NewStudio, BaibaKo

0 | 0

28.65 ГБ

В этой теме нет новых непрочитанных сообщений. Чужестранка / Outlander [03x01 из 13] (2017) WEB-DL1080p | NewStudio, BaibaKo

7 | 2

3.15 ГБ

В этой теме нет новых непрочитанных сообщений. Чужестранка / Outlander [03x01-08 из 13] (2017) WEB-DL 720p | NewStudio, BaibaKo

0 | 0

13.98 ГБ

В этой теме нет новых непрочитанных сообщений. Чужестранка / Outlander [03x01-09 из 13] (2017) WEB-DL 720p | NewStudio, BaibaKo

0 | 0

15.87 ГБ

В этой теме нет новых непрочитанных сообщений. Чужестранка / Outlander [03x01 из 13] (2017) WEB-DL 720p | NewStudio, BaibaKo

3 | 2

1.82 ГБ

В этой теме нет новых непрочитанных сообщений. Чужестранка / Outlander [03х01-05 из 13] (2017) WEB-DL 1080p | NewStudio

6 | 5

15.16 ГБ

В этой теме нет новых непрочитанных сообщений. Чужестранка / Outlander [01 х 01-08 из 16] (2014) WEB-DL 720p | BaibaKo, NewStudio

4 | 23

16.85 ГБ




Вы не можете начинать темы
Вы не можете отвечать на сообщения
Вы не можете редактировать свои сообщения
Вы не можете удалять свои сообщения
Вы не можете добавлять вложения

Перейти:  
Для Мосгорсуда, Роскомнадзора и рекламодателей: mosgorsud-torrent[собачка]yandex.ru
 Вход
ppkBB3cker v.2 © 2008-2014 @ PPK
[ Time : 0.056s | 20 Queries | GZIP : Off ]

cron