img image001 image001 image001 image001 image001 image001 image001 image001 image001 image001 image001 image001 image001 image001 image001

Planets Sun Sun Sun
Статистика раздачи
Автор: Nickolas3434 | Размер: 7.21 ГБ | Добавлен: 17 ноя 2017
Раздают: 6    Качают: 6
Скачать торрент
Скачать торрент
Описание торрента

СообщениеДобавлено: 17 ноя 2017 

Информация о фильме
Название: Клянусь любить тебя вечно
Год выхода: 2017
Жанр: Мелодрама
Режиссер: Алина Чеботарева
В ролях: Александра Сизоненко, Александр Крючков, Иван Соловьёв, Оксана Жданова, Анна Лебедева, Нина Нижерадзе, Сергей Сипливый, Валерий Швец, Андрей Билоус, Сергей Калантай, Роман Мацюта, Полина Цицильницкая, Владимир Машука, Никита Кармазин, Максим Боряк, София Котлярова
О фильме:
Союз трех школьных друзей превращается в многолетний любовный треугольник в мини-сериале «Клянусь любить тебя вечно» от режиссера легкого «женского» кино Алины Чеботаревой («Срочно! Ищу мужа», «Вернешься – поговорим», «Фото на недобрую память»). За сердце героини Александры Сизоненко соперничают двое приятелей-противоположностей в исполнении Александра Крючкова и Ивана Соловьева. Сериал переносит зрителей в живописный городок у моря, съемки которого проходили под Одессой.Еще в детстве трое одноклассников Лена, Женя и Паша дали нерушимую клятву – никогда не ссориться и не предавать друг друга. С годами Лена превращается в красивую девушку и спортсменку-пловчиху с большими задатками. Женя, выросший в обеспеченной семье, становится дамским угодником и готовится поступать на экономический факультет. Тем временем благородный Паша избрал нелегкий путь моряка. Повзрослевшим друзьям становится всё сложнее исполнять детскую клятву. И Женя, и Паша влюбляются в свою подругу, которая не может дать им ответ. Судьба разводит героев по разным дорогам. Пережив череду испытаний и искушений, они встречаются спустя семь лет и снова встают перед судьбоносным выбором.

Страна: Украина
Студия: Компания "FILM.UA"
Продолжительность: 4 х ~ 00:48:00
Перевод: Не требуется
Файл
Кодек: h.264
Качество: WEB-DLRip 1080p
Видео: MPEG-4 AVC, ~ 5120 Кбит/с, 1920x1080, 25,000 кадр/с
Звук: Русский (AC3, 2 ch, 256 Кбит/с)
Субтитры: Нет
Семпл
General
Unique ID : 184757660053112877012669460313696015915 (0x8AFF07EF4BD5F6158BF16274B7E2962B)
Complete name : D:uTorrentKljanus.ljubit.tebja.vecno.2017.WEB-DLRip.1080pKljanus.ljubit.tebja.vecno.(01.iz.04).2017.WEB-DLRip.1080p.MediaClub.mkv
Format : Matroska
Format version : Version 4 / Version 2
File size : 1.77 GiB
Duration : 47 min 17 s
Overall bit rate : 5 372 kb/s
Encoded date : UTC 2017-11-17 09:50:04
Writing application : mkvmerge v17.0.0 ('Be Ur Friend') 64-bit
Writing library : libebml v1.3.5 + libmatroska v1.4.8
Video
ID : 1
Format : AVC
Format/Info : Advanced Video Codec
Format profile : High@L4
Format settings : CABAC / 4 Ref Frames
Format settings, CABAC : Yes
Format settings, RefFrames : 4 frames
Codec ID : V_MPEG4/ISO/AVC
Duration : 47 min 17 s
Bit rate : 5 120 kb/s
Width : 1 920 pixels
Height : 1 080 pixels
Display aspect ratio : 16:9
Frame rate mode : Constant
Frame rate : 25.000 FPS
Color space : YUV
Chroma subsampling : 4:2:0
Bit depth : 8 bits
Scan type : Progressive
Bits/(Pixel*Frame) : 0.099
Stream size : 1.69 GiB (95%)
Title : WEB-DLRip by Silverok
Writing library : x264 core 142
Encoding settings : cabac=1 / ref=3 / deblock=1:0:0 / analyse=0x3:0x113 / me=hex / subme=7 / psy=1 / psy_rd=1.00:0.00 / mixed_ref=1 / me_range=16 / chroma_me=1 / trellis=1 / 8x8dct=1 / cqm=0 / deadzone=21,11 / fast_pskip=1 / chroma_qp_offset=-2 / threads=36 / lookahead_threads=6 / sliced_threads=0 / nr=0 / decimate=1 / interlaced=0 / bluray_compat=0 / constrained_intra=0 / bframes=6 / b_pyramid=2 / b_adapt=1 / b_bias=0 / direct=1 / weightb=1 / open_gop=0 / weightp=2 / keyint=50 / keyint_min=26 / scenecut=0 / intra_refresh=0 / rc_lookahead=40 / rc=2pass / mbtree=1 / bitrate=5120 / ratetol=1.0 / qcomp=0.60 / qpmin=0 / qpmax=69 / qpstep=4 / cplxblur=20.0 / qblur=0.5 / vbv_maxrate=7680 / vbv_bufsize=20480 / nal_hrd=none / filler=0 / ip_ratio=1.40 / aq=1:1.00
Default : Yes
Forced : No
Audio
ID : 2
Format : AC-3
Format/Info : Audio Coding 3
Codec ID : A_AC3
Duration : 47 min 17 s
Bit rate mode : Constant
Bit rate : 256 kb/s
Channel(s) : 2 channels
Channel positions : Front: L R
Sampling rate : 48.0 kHz
Frame rate : 31.250 FPS (1536 SPF)
Bit depth : 16 bits
Compression mode : Lossy
Stream size : 86.6 MiB (5%)
Language : Russian
Service kind : Complete Main
Default : Yes
Forced : No


Релиз от: | Silverok



   Похожие торренты   Торрент   Размер 
В этой теме нет новых непрочитанных сообщений. Клянусь любить тебя вечно [01 из 04] (2017) WEB-DLRip-AVC от Files-x

22 | 2

2.42 ГБ

В этой теме нет новых непрочитанных сообщений. Клянусь любить тебя вечно [01 из 04] (2017) WEB-DLRip от Files-x

89 | 8

2.34 ГБ

В этой теме нет новых непрочитанных сообщений. Клянусь любить тебя вечно [01 из 04] (2017) WEB-DLRip-AVC от Files-x

0 | 0

2.36 ГБ

В этой теме нет новых непрочитанных сообщений. Клянусь любить тебя вечно [01-04 из 04] (2017) WEB-DL 720p от OlLanDGroup

77 | 1

4.93 ГБ

В этой теме нет новых непрочитанных сообщений. Клянусь любить тебя вечно [01-04 из 04] (2017) SATRip-AVC от Files-x

10 | 0

2.24 ГБ

В этой теме нет новых непрочитанных сообщений. Клянусь любить тебя вечно [01 из 04] (2017) SATRip от Files-x

110 | 9

2.34 ГБ

В этой теме нет новых непрочитанных сообщений. Любить и верить [01-03 из 04] (2017) HDTVRip 720p от MediaClub

8 | 1

4.77 ГБ




Вы не можете начинать темы
Вы не можете отвечать на сообщения
Вы не можете редактировать свои сообщения
Вы не можете удалять свои сообщения
Вы не можете добавлять вложения

Перейти:  
Для Мосгорсуда, Роскомнадзора и рекламодателей: mosgorsud-torrent[собачка]yandex.ru
 Вход
ppkBB3cker v.2 © 2008-2014 @ PPK
[ Time : 0.081s | 19 Queries | GZIP : Off ]

cron