img image001 image001 image001 image001 image001 image001 image001 image001 image001 image001 image001 image001 image001 image001 image001 image001
Planets Sun Sun Sun
Статистика раздачи
Автор: Nickolas3434 | Размер: 8.81 ГБ | Добавлен: 19 ноя 2017
Раздают: 14    Качают: 12
Скачать торрент
Скачать торрент
Описание торрента

СообщениеДобавлено: 19 ноя 2017 

Название: Династия
Оригинальное название: Dynasty
Год выхода: 2017
Жанр: драма
Режиссеры: Майкл А. Алловиц, Ли Роуз, Брэд Силберлинг
В ролях: Сэм Адегоке, Алан Дэйл, Элизабет Гиллис, Натали Келли, Джеймс Маккэй, Рафаэль Де Ла Фуэнте, Роберт Кристофер Райли, Грант Шоу и др.
О сериале: В центре сюжета — Кэррингтоны, состоятельная семья, владеющая нефтяным бизнесом, и противостояние богатой наследницы Фэллон Кэррингтон и её мачехи, испанки Кристал.
Производство: США / CBS Television Studiosn, Fake Empire
Продолжительность: ~00:45:00
Перевод: Профессиональный (многоголосый закадровый) SDI Media
Субтитры: Русские, Английские

Файл
Формат: MKV
Качество: WEB-DL 1080р
Видео: MPEG-4 AVC, ~ 4000 Кбит/с, 1920x1080
Аудио RUS: 48 kHz, AC3, 3/2 (L,C,R,l,r) + LFE ch, ~384.00 kbps avg
Аудио ENG: 48 kHz, AC3, 3/2 (L,C,R,l,r) + LFE ch, ~384.00 kbps avg
Релиз группа:

Формат : Matroska
Версия формата : Version 4 / Version 2
Размер файла : 1,38 Гбайт
Продолжительность : 43 м. 43 с.
Режим общего битрейта : Переменный
Общий поток : 4526 Кбит/сек
Название фильма : Dynasty S01E01 I Hardly Recognized You
Дата кодирования : UTC 2017-10-17 16:52:42
Программа кодирования : mkvmerge v14.0.0 ('Flow') 64bit
Библиотека кодирования : libebml v1.3.4 + libmatroska v1.4.5
Обложка : Yes
Attachments : cover.jpg
Видео
Идентификатор : 1
Формат : AVC
Формат/Информация : Advanced Video Codec
Профиль формата : Main@L4
Настройки формата : CABAC / 3 Ref Frames
Параметр CABAC формата : Да
Параметр RefFrames формата : 3 кадра
Параметр GOP формата : M=3, N=48
Идентификатор кодека : V_MPEG4/ISO/AVC
Продолжительность : 43 м. 43 с.
Вид битрейта : Переменный
Битрейт : 3830 Кбит/сек
Максимальный битрейт : 5745 Кбит/сек
Ширина : 1920 пикселей
Высота : 1080 пикселей
Соотношение сторон : 16:9
Режим частоты кадров : Постоянный
Частота кадров : 23,976 (24000/1001) кадра/сек
Цветовое пространство : YUV
Субдискретизация насыщенности : 4:2:0
Битовая глубина : 8 бит
Тип развёртки : Прогрессивная
Бит/(Пиксели*Кадры) : 0.077
Размер потока : 1,12 Гбайт (81%)
Заголовок : Dynasty 1x01 (2017) - Release serial_M
Библиотека кодирования : x264 core 148
Настройки программы : cabac=1 / ref=3 / deblock=1:0:0 / analyse=0x1:0x111 / me=umh / subme=10 / psy=1 / psy_rd=1.00:0.00 / mixed_ref=1 / me_range=24 / chroma_me=1 / trellis=2 / 8x8dct=0 / cqm=0 / deadzone=21,11 / fast_pskip=1 / chroma_qp_offset=-2 / threads=8 / lookahead_threads=1 / sliced_threads=0 / nr=0 / decimate=1 / interlaced=0 / bluray_compat=0 / stitchable=1 / constrained_intra=0 / bframes=2 / b_pyramid=0 / b_adapt=2 / b_bias=0 / direct=3 / weightb=1 / open_gop=0 / weightp=2 / keyint=48 / keyint_min=25 / scenecut=0 / intra_refresh=0 / rc_lookahead=48 / rc=2pass / mbtree=1 / bitrate=3830 / ratetol=1.0 / qcomp=0.50 / qpmin=6 / qpmax=51 / qpstep=4 / cplxblur=20.0 / qblur=0.5 / vbv_maxrate=5745 / vbv_bufsize=7660 / nal_hrd=vbr / filler=0 / ip_ratio=1.40 / aq=1:1.00
Язык : English
Default : Да
Forced : Нет
Аудио #1
Идентификатор : 2
Формат : AC-3
Формат/Информация : Audio Coding 3
Идентификатор кодека : A_AC3
Продолжительность : 43 м. 43 с.
Вид битрейта : Постоянный
Битрейт : 384 Кбит/сек
Каналы : 6 каналов
Расположение каналов : Front: L C R, Side: L R, LFE
Частота : 48,0 КГц
Частота кадров : 31,250 кадров/сек (1536 SPF)
Битовая глубина : 16 бит
Метод сжатия : С потерями
Размер потока : 120 Мбайт (8%)
Заголовок : SDI Media
Язык : Russian
Default : Да
Forced : Нет
Аудио #2
Идентификатор : 3
Формат : AC-3
Формат/Информация : Audio Coding 3
Идентификатор кодека : A_AC3
Продолжительность : 43 м. 43 с.
Вид битрейта : Постоянный
Битрейт : 384 Кбит/сек
Каналы : 6 каналов
Расположение каналов : Front: L C R, Side: L R, LFE
Частота : 48,0 КГц
Частота кадров : 31,250 кадров/сек (1536 SPF)
Битовая глубина : 16 бит
Метод сжатия : С потерями
Размер потока : 120 Мбайт (8%)
Заголовок : English
Язык : English
Default : Нет
Forced : Нет
Текст #1
Идентификатор : 4
Формат : UTF-8
Идентификатор кодека : S_TEXT/UTF8
Идентификатор кодека/Информация : UTF-8 Plain Text
Заголовок : SRT - Forced
Язык : Russian
Default : Да
Forced : Да
Текст #2
Идентификатор : 5
Формат : UTF-8
Идентификатор кодека : S_TEXT/UTF8
Идентификатор кодека/Информация : UTF-8 Plain Text
Заголовок : SRT - Full
Язык : Russian
Default : Нет
Forced : Нет
Текст #3
Идентификатор : 6
Формат : UTF-8
Идентификатор кодека : S_TEXT/UTF8
Идентификатор кодека/Информация : UTF-8 Plain Text
Заголовок : SRT - Full SDH
Язык : English
Default : Нет
Forced : Нет
Внимание! Раздача ведётся путём добавления новых серий; при каждом добавлении создаётся новый торрент. Чтобы начать докачку новой серии, пользователям необходимо сделать следующее:
(1) остановить скачивание,
(2) удалить старый торрент у себя из клиента (старые серии удалять не надо),
(3) скачать новый торрент и запустить его у себя в клиенте вместо старого, при этом указать клиенту путь в старую папку куда и должно происходить скачивание новых серий.
Ваш клиент при этом должен произвести хеширование (проверку) старой папки (если не производит сам - помогите ему сделать это), и будет докачивать только те серии которых у вас ещё нет. Старые серии при этом не удаляются, а продолжают раздаваться!
Eсли вы уже удалили старые серии, то предотвратить повторную закачку старых серий можно, отжав галочку в соответсвующих местах при запуске нового торрента. По возможности, желательно не удалять старые серии как можно дольше чтобы релизёр не столько продолжал раздавать старые серии, а смог сконцентрироваться на новых.



   Похожие торренты   Торрент   Размер 
В этой теме нет новых непрочитанных сообщений. Династия / Dynasty [01х01-09 из 13] (2017) WEB-DLRip | SDI Media

9 | 11

7.47 ГБ

В этой теме нет новых непрочитанных сообщений. Династия / Dynasty [01х01-10 из 22] (2017) WEB-DL 1080p | NewStudio

0 | 0

17.56 ГБ

В этой теме нет новых непрочитанных сообщений. Династия / Dynasty [01х01 из 08] (2017) WEB-DLRip | NewStudio

17 | 1

549.97 МБ

В этой теме нет новых непрочитанных сообщений. Династия / Dynasty [01х01 из 08] (2017) WEB-DL 720p | NewStudio

8 | 3

1.45 ГБ

В этой теме нет новых непрочитанных сообщений. Династия / Dynasty [01х01-03 из 08] (2017) WEB-DLRip 720p | Sunshine Studio

15 | 9

3.38 ГБ

В этой теме нет новых непрочитанных сообщений. Династия / Dynasty [01х01-04 из 08] (2017) WEB-DLRip 720p | Sunshine Studio

18 | 10

4.3 ГБ

В этой теме нет новых непрочитанных сообщений. Династия / Dynasty [01х01 из 08] (2017) WEB-DLRip 720p | Sunshine Studio

22 | 7

1005.05 МБ




Вы не можете начинать темы
Вы не можете отвечать на сообщения
Вы не можете редактировать свои сообщения
Вы не можете удалять свои сообщения
Вы не можете добавлять вложения

Перейти:  
Для Мосгорсуда, Роскомнадзора и рекламодателей: mosgorsud-torrent[собачка]yandex.ru
 Вход
ppkBB3cker v.2 © 2008-2014 @ PPK
[ Time : 0.065s | 17 Queries | GZIP : Off ]

cron