img image001 image001 image001 image001 image001 image001 image001 image001 image001 image001 image001 image001 image001 image001 image001 image001

Planets Sun Sun Sun
Статистика раздачи
Автор: Nickolas3434 | Размер: 7.4 ГБ | Добавлен: 26 ноя 2017
Раздают: 3    Качают: 1
Скачать торрент
Скачать торрент
Описание торрента

СообщениеДобавлено: 26 ноя 2017 

Информация о фильме
Название: Все равно ты будешь мой
Год выхода: 2015
Жанр: Мелодрама
Режиссер: Василий Синицын
В ролях: Валерия Ходос, Александр Попов, Даниил Мирешкин, Виталий Овчаров, Владимир Миненко, Елена Стефанская, Станислав Боклан, Алла Мартынюк
О фильме:
История любви обаятельной провинциалки Алены к богатому аристократу Никите, для которого отношения с Аленой - это просто спор с друзьями. Алена пройдет через много испытаний и унижения, но все-таки найдет в себе силы доказать себе и всем, что она достойна Ника, а поможет ей обрести уверенность в себе ее верный и безнадежно в нее влюбленный друг Миша... Представитель "золотой молодежи" Никита заключил пари с друзьями, что соблазнит "серую мышку" отличницу Алену. Девушка влюбляется в парня, не замечая искренних чувств другого студента. Когда Никита грубо бросает ее, Алена решает работать над собой, чтобы вернуть любимого.

Страна: Украина
Студия: 1+1 Video
Продолжительность: 4 х ~ 00:49:00
Перевод: Не требуется
Файл
Кодек: h.264
Качество: WEB-DLRip 1080p
Видео: MPEG-4 AVC, ~ 5120 Кбит/с, 1920x1080, 25,000 кадр/с
Звук: Русский (AC3, 2 ch, 256 Кбит/с)
Субтитры: Нет
Семпл
General
Unique ID : 232222950580953476733794325377385627026 (0xAEB48370225892228DCBA61896F9FD92)
Complete name : D:uTorrentVsje.ravno.ty.budesh.moi.2015.WEB-DLRip.1080pVsje.ravno.ty.budesh.moi.(01.iz.04).2015.WEB-DLRip.1080p.MediaClub.mkv
Format : Matroska
Format version : Version 4 / Version 2
File size : 1.83 GiB
Duration : 48 min 46 s
Overall bit rate : 5 370 kb/s
Encoded date : UTC 2017-11-25 05:22:28
Writing application : mkvmerge v17.0.0 ('Be Ur Friend') 64-bit
Writing library : libebml v1.3.5 + libmatroska v1.4.8
Video
ID : 1
Format : AVC
Format/Info : Advanced Video Codec
Format profile : High@L4
Format settings : CABAC / 4 Ref Frames
Format settings, CABAC : Yes
Format settings, RefFrames : 4 frames
Codec ID : V_MPEG4/ISO/AVC
Duration : 48 min 46 s
Bit rate : 5 120 kb/s
Width : 1 920 pixels
Height : 1 080 pixels
Display aspect ratio : 16:9
Frame rate mode : Constant
Frame rate : 25.000 FPS
Color space : YUV
Chroma subsampling : 4:2:0
Bit depth : 8 bits
Scan type : Progressive
Bits/(Pixel*Frame) : 0.099
Stream size : 1.74 GiB (95%)
Title : WEB-DLRip by Silverok
Writing library : x264 core 142
Encoding settings : cabac=1 / ref=3 / deblock=1:0:0 / analyse=0x3:0x113 / me=hex / subme=7 / psy=1 / psy_rd=1.00:0.00 / mixed_ref=1 / me_range=16 / chroma_me=1 / trellis=1 / 8x8dct=1 / cqm=0 / deadzone=21,11 / fast_pskip=1 / chroma_qp_offset=-2 / threads=36 / lookahead_threads=6 / sliced_threads=0 / nr=0 / decimate=1 / interlaced=0 / bluray_compat=0 / constrained_intra=0 / bframes=6 / b_pyramid=2 / b_adapt=1 / b_bias=0 / direct=1 / weightb=1 / open_gop=0 / weightp=2 / keyint=50 / keyint_min=26 / scenecut=0 / intra_refresh=0 / rc_lookahead=40 / rc=2pass / mbtree=1 / bitrate=5120 / ratetol=1.0 / qcomp=0.60 / qpmin=0 / qpmax=69 / qpstep=4 / cplxblur=20.0 / qblur=0.5 / vbv_maxrate=7680 / vbv_bufsize=20480 / nal_hrd=none / filler=0 / ip_ratio=1.40 / aq=1:1.00
Default : Yes
Forced : No
Audio
ID : 2
Format : AC-3
Format/Info : Audio Coding 3
Codec ID : A_AC3
Duration : 48 min 46 s
Bit rate mode : Constant
Bit rate : 256 kb/s
Channel(s) : 2 channels
Channel positions : Front: L R
Sampling rate : 48.0 kHz
Frame rate : 31.250 FPS (1536 SPF)
Bit depth : 16 bits
Compression mode : Lossy
Stream size : 89.3 MiB (5%)
Language : Russian
Service kind : Complete Main
Default : Yes
Forced : No


Релиз от: | Silverok



   Похожие торренты   Торрент   Размер 
В этой теме нет новых непрочитанных сообщений. Все равно ты будешь мой [01-04 из 04] (2015) DVB от Files-x

232 | 79

7.85 ГБ

В этой теме нет новых непрочитанных сообщений. Все равно ты будешь мой [01-04 из 04] (2015) WEBRip-AVC от Files-x

11 | 0

2.47 ГБ

В этой теме нет новых непрочитанных сообщений. Все равно ты будешь мой [01 из 04] (2015) SATRip от Files-x

1109 | 207

2.4 ГБ

В этой теме нет новых непрочитанных сообщений. Ты будешь моей (2013) HDTV 1080p от MediaClub

96 | 73

4.01 ГБ

В этой теме нет новых непрочитанных сообщений. Ты будешь моей (2013) HDTVRip 720p от MediaClub

124 | 23

2.43 ГБ

В этой теме нет новых непрочитанных сообщений. Ты будешь чтить свою мать и свою мать / Tu honoreras ta mère et ta mère (2012) HDTVRip 1080p от MediaClub | P2

39 | 16

4.65 ГБ

В этой теме нет новых непрочитанных сообщений. Я думал, ты будешь всегда (2013) WEB-DLRip от MegaPeer

37 | 0

1.37 ГБ




Вы не можете начинать темы
Вы не можете отвечать на сообщения
Вы не можете редактировать свои сообщения
Вы не можете удалять свои сообщения
Вы не можете добавлять вложения

Перейти:  
 Вход
ppkBB3cker v.2 © 2008-2014 @ PPK
[ Time : 0.045s | 18 Queries | GZIP : Off ]

cron