img image001 image001 image001 image001 image001 image001 image001 image001 image001 image001 image001 image001 image001 image001 image001 image001

Planets Sun Sun Sun
Статистика раздачи
Автор: Nickolas3434 | Размер: 2.72 ГБ | Добавлен: 17 дек 2017
Раздают: 6    Качают: 0
Скачать торрент
Скачать торрент
Описание торрента

СообщениеДобавлено: 17 дек 2017 

Название: Охотник за разумом
Оригинальное название: Mindhunter
Год выпуска: 2017
Жанр: Триллер, драма, криминал
Выпущено: США, Denver and Delilah Productions, Netflix, Panic Pictures (II)
Режиссер: Дэвид Финчер, Эндрю Дуглас, Азиф Кападиа
В ролях:
Джонатан Грофф, Холт МакКэллани, Анна Торв, Коттер Смит, Сонни Валиченти, Ханна Гросс, Камерон Бриттон, Алекс Морф, Стэйси Рока, Джо Таттл
Описание сериала:
Действие сериала происходит в 1979 году. В центре сюжета два агента ФБР, которые опрашивают находящихся в заключении серийных убийц с целью понимания их образа мыслей, а также раскрытия текущих преступлений.


Страна: США
Продолжительность: ~ 01:00:00
Перевод: Любительский многоголосый (RusFilm)
Файл
Формат: MKV
Качество: WEBRip (1080p)
Видео: MPEG-4 AVC, ~ 3500 Кбит/с, 1920х872
Аудио: 48 kHz, AC3 Dolby Digital, 2/0 (L,R) ch, ~192 kbps rus
Реклама: в начале 7 сек.
Внимание: Ненормативная лексика.
Формат : Matroska
Версия формата : Version 4 / Version 2
Размер файла : 1,56 Гбайт
Продолжительность : 1 ч. 0 м.
Общий поток : 3720 Кбит/сек
Название фильма : mindhunter.s01e01.1080p.fcc
Дата кодирования : UTC 2017-12-08 13:15:15
Программа кодирования : mkvmerge v6.0.0 ('Coming Up For Air') built on Jan 20 2013 09:52:00
Библиотека кодирования : libebml v1.3.0 + libmatroska v1.4.0
Видео
Идентификатор : 1
Формат : AVC
Формат/Информация : Advanced Video Codec
Профиль формата : High@L4.1
Параметр CABAC формата : Да
Параметр ReFrames формата : 4 кадра
Идентификатор кодека : V_MPEG4/ISO/AVC
Продолжительность : 1 ч. 0 м.
Битрейт : 3454 Кбит/сек
Ширина : 1920 пикселей
Высота : 872 пикселя
Соотношение сторон : 2,2:1
Режим частоты кадров : Постоянный
Частота кадров : 23,976 кадра/сек
Цветовое пространство : YUV
Субдискретизация насыщенности : 4:2:0
Битовая глубина : 8 бит
Тип развёртки : Прогрессивная
Бит/(Пиксели*Кадры) : 0.086
Размер потока : 1,45 Гбайт (93%)
Заголовок : FCC 4ever
Библиотека кодирования : x264 core 152 r2851 ba24899
Настройки программы : cabac=1 / ref=4 / deblock=1:-3:-3 / analyse=0x3:0x113 / me=hex / subme=8 / psy=1 / psy_rd=1.00:0.00 / mixed_ref=1 / me_range=16 / chroma_me=1 / trellis=2 / 8x8dct=1 / cqm=0 / deadzone=21,11 / fast_pskip=1 / chroma_qp_offset=-2 / threads=12 / lookahead_threads=2 / sliced_threads=0 / nr=0 / decimate=1 / interlaced=0 / bluray_compat=0 / constrained_intra=0 / bframes=3 / b_pyramid=2 / b_adapt=1 / b_bias=0 / direct=3 / weightb=1 / open_gop=0 / weightp=2 / keyint=250 / keyint_min=23 / scenecut=40 / intra_refresh=0 / rc_lookahead=50 / rc=crf / mbtree=1 / crf=17.0 / qcomp=0.60 / qpmin=0 / qpmax=69 / qpstep=4 / ip_ratio=1.40 / aq=1:1.00
Язык : Spanish
Default : Да
Forced : Нет
Аудио
Идентификатор : 2
Формат : AC-3
Формат/Информация : Audio Coding 3
Расширение режима : CM (complete main)
Параметр Endianness формата : Big
Идентификатор кодека : A_AC3
Продолжительность : 1 ч. 0 м.
Вид битрейта : Постоянный
Битрейт : 192 Кбит/сек
Каналы : 2 канала
Расположение каналов : Front: L R
Частота : 48,0 КГц
Битовая глубина : 16 бит
Метод сжатия : С потерями
Размер потока : 82,6 Мбайт (5%)
Default : Да
Forced : Нет
Внимание! Раздача ведётся путём добавления новых серий; при каждом добавлении создаётся новый торрент. Чтобы начать докачку новой серии, пользователям необходимо сделать следующее:
(1) остановить скачивание,
(2) удалить старый торрент у себя из клиента (старые серии удалять не надо),
(3) скачать новый торрент и запустить его у себя в клиенте вместо старого, при этом указать клиенту путь в старую папку куда и должно происходить скачивание новых серий.
Ваш клиент при этом должен произвести хеширование (проверку) старой папки (если не производит сам - помогите ему сделать это), и будет докачивать только те серии которых у вас ещё нет. Старые серии при этом не удаляются, а продолжают раздаваться!
Eсли вы уже удалили старые серии, то предотвратить повторную закачку старых серий можно, отжав галочку в соответсвующих местах при запуске нового торрента. По возможности, желательно не удалять старые серии как можно дольше чтобы релизёр не столько продолжал раздавать старые серии, а смог сконцентрироваться на новых.



   Похожие торренты   Торрент   Размер 
В этой теме нет новых непрочитанных сообщений. Охотник за разумом / Mindhunter [01х01 из 10] (2017) WEBRip 1080p | RusFilm

0 | 0

1.56 ГБ

В этой теме нет новых непрочитанных сообщений. Охотник за разумом / Mindhunter [01х01 из 10] (2017) WEBRip 720p | Sunshine Studio

20 | 6

650.84 МБ

В этой теме нет новых непрочитанных сообщений. Охотник за разумом / Mindhunter [01х01 из 10] (2017) WEBRip 720p | Sunshine Studio

66 | 15

1.23 ГБ

В этой теме нет новых непрочитанных сообщений. Охотник за разумом / Mindhunter [S01] (2017) WEBRip 1080p | NewStudio

220 | 83

22.1 ГБ

В этой теме нет новых непрочитанных сообщений. Охотник за разумом / Mindhunter [S01] (2017) WEBRip 1080p | LostFilm

96 | 30

22.1 ГБ

В этой теме нет новых непрочитанных сообщений. Охотник за разумом / Mindhunter [01x01-08 из 10] (2017) WEBRip 1080p | LostFilm

0 | 0

19.8 ГБ

В этой теме нет новых непрочитанных сообщений. Охотник за разумом / Mindhunter [01x01-08 из 10] (2017) WEBRip 1080p | LostFilm

0 | 0

17.73 ГБ




Вы не можете начинать темы
Вы не можете отвечать на сообщения
Вы не можете редактировать свои сообщения
Вы не можете удалять свои сообщения
Вы не можете добавлять вложения

Перейти:  
 Вход
ppkBB3cker v.2 © 2008-2014 @ PPK
[ Time : 0.034s | 16 Queries | GZIP : Off ]

cron