img image001 image001 image001 image001 image001 image001 image001 image001 image001 image001 image001 image001 image001 image001 image001 image001

Planets Sun Sun Sun
Статистика раздачи
Автор: Снежана | Размер: 14.17 ГБ | Добавлен: 08 фев 2018
Раздают: 3    Качают: 1
Скачать торрент
Скачать торрент
Описание торрента

СообщениеДобавлено: 08 фев 2018 

Название: Секретные материалы
Оригинальное название: The X-Files
Год выпуска: 1998-1999
Жанр: Фантастика, триллер, драма, детектив
Выпущено: США, Канада / 20th Century Fox Television, Ten Thirteen Productions, X-F Productions
Продолжительность: 22x00:45:00
Перевод: Профессиональный (дублированный) ТВ3

Описание: Специальному агенту Дане Скалли, доктору и преподавателю академии ФБР в Вирджинии, поручают работу в паре с агентом Фоксом Малдером над проектом «Секретные материалы», архивом таинственных, нерешенных дел ФБР, которые зачастую связаны с паранормальными явлениями, случаями вампиризма и оборотничества, нападением генетических мутантов, свидетельствами о похищении людей пришельцами...
Малдер верит в пришельцев и пытается убедить скептика Скалли, что не всё и не всегда поддаётся разумному объяснению. В своих дискуссиях Малдер и Скалли не столько стараются убедить друг друга, сколько получают удовольствие от самого общения.
06х01х118 Начало. The Beginning (8 ноября 1998)
06х02х119 Гонка. Drive (15 ноября 1998)
06х03х120 Треугольник. Triangle (22 ноября 1998)
06х04х121 Зазеркалье. Dreamland (29 ноября 1998)
06х05х122 Зазеркалье 2. Dreamland 2 (6 декабря 1998)
06х06х123 Как призраки похитили Рождество. How the Ghosts Stole Christmas (13 декабря 1998)
06х07х124 Язык нежности. Terms of Endearment (3 января 1999)
06х08х125 Король дождя. The Rain King (10 января 1999)
06х09х126 Резолюция Сената № 819. S.R. 819 (17 января 1999)
06х10х127 Титон. Tithonus (24 января 1999)
06х11х128 Два отца. Two Fathers (7 февраля 1999)
06х12х129 Один сын. One Son (14 февраля 1999)
06х13х130 Плохая вода. Agua Mala (21 февраля 1999)
06х14х131 Понедельник. Monday (28 февраля 1999)
06х15х132 Аркадия. Arcadia (7 марта 1999)
06х16х133 Альфа. Alpha (28 марта 1999)
06х17х134 Тревор. Trevor (11 апреля 1999)
06х18х135 Чудо. Milagro (18 апреля 1999)
06х19х136 Неестественный. Unnatural (25 апреля 1999)
06х20х137 Три карты одной масти. Three of a Kind (2 мая 1999)
06х21х138 Полевой выезд. Field Trip (9 мая 1999)
06х22х139 Биогенез. Biogenesis (16 мая 1999)

Файл
Кодек: H.264/AVC
Качество: BDRip 720p
Видео: AVC, 1000 Кбит/сек, 1280x720, 23.976 кадр/сек
Аудио #1: AAC, 2 ch, 192 kbps, 48,0 КГц, (Russian) - Дубляж ТВ-3
Аудио #2: AAC, 6 ch, 329 kbps, 48,0 КГц, (English)
Аудио #3: AAC, 2 ch, 128 kbps, 48,0 КГц, (Spanish)
Аудио #4: AAC, 2 ch, 128 kbps, 48,0 КГц, (French)
Аудио #5: AAC, 2 ch, 132 kbps, 48,0 КГц, (German)
Аудио #6: AAC, 2 ch, 132 kbps, 48,0 КГц, (Japanese)
Субтитры: Russian, English, Spanish, French, German, Japanese
Разделение по главам: есть

Автор записи/рипа: DeeJayAhmed-waPBX
Общее
Уникальный идентификатор : 190373385924575445083913242752684200454 (0x8F389498CEA440E40FDB70F36BFD1206)
Полное имя : Секретные материалы. X-Files. S06 (1998) BDRip-AVC 720p. Rus-Eng-Spa-Fre-Ger-Jap6х01х118 Начало. The Beginning (8 ноября 1998).mkv
Формат : Matroska
Версия формата : Version 4 / Version 2
Размер файла : 669 Мбайт
Продолжительность : 45 м. 25 с.
Общий поток : 2060 Кбит/сек
Название фильма : The X-Files, Season 6 Disc 1
Дата кодирования : UTC 2018-02-07 13:11:45
Программа кодирования : mkvmerge v19.0.0 ('Brave Captain') 64-bit
Библиотека кодирования : libebml v1.3.5 + libmatroska v1.4.8
Видео
Идентификатор : 1
Формат : AVC
Формат/Информация : Advanced Video Codec
Профиль формата : High@L4.1
Настройки формата : CABAC / 8 Ref Frames
Параметр CABAC формата : Да
Параметр RefFrames формата : 8 кадров
Идентификатор кодека : V_MPEG4/ISO/AVC
Продолжительность : 45 м. 25 с.
Битрейт : 948 Кбит/сек
Ширина : 1280 пикселей
Высота : 720 пикселей
Соотношение сторон : 16:9
Режим частоты кадров : Постоянный
Частота кадров : 23,976 (24000/1001) кадра/сек
Цветовое пространство : YUV
Субдискретизация насыщенности : 4:2:0
Битовая глубина : 8 бит
Тип развёртки : Прогрессивная
Бит/(Пиксели*Кадры) : 0.043
Размер потока : 308 Мбайт (46%)
Библиотека кодирования : x264 core 148 r2638 7599210
Настройки программы : cabac=1 / ref=8 / deblock=1:-1:-1 / analyse=0x3:0x133 / me=umh / subme=9 / psy=1 / psy_rd=1.00:0.15 / mixed_ref=1 / me_range=24 / chroma_me=1 / trellis=2 / 8x8dct=1 / cqm=0 / deadzone=21,11 / fast_pskip=1 / chroma_qp_offset=-3 / threads=12 / lookahead_threads=1 / sliced_threads=0 / nr=0 / decimate=1 / interlaced=0 / bluray_compat=0 / constrained_intra=0 / bframes=3 / b_pyramid=2 / b_adapt=2 / b_bias=0 / direct=3 / weightb=1 / open_gop=0 / weightp=2 / keyint=240 / keyint_min=23 / scenecut=40 / intra_refresh=0 / rc_lookahead=60 / rc=2pass / mbtree=1 / bitrate=948 / ratetol=1.0 / qcomp=0.60 / qpmin=0 / qpmax=69 / qpstep=4 / cplxblur=20.0 / qblur=0.5 / vbv_maxrate=62500 / vbv_bufsize=78125 / nal_hrd=none / filler=0 / ip_ratio=1.40 / aq=1:1.00
Язык : Russian
Default : Да
Forced : Нет
Аудио #1
Идентификатор : 2
Формат : AAC
Формат/Информация : Advanced Audio Codec
Профиль формата : LC
Идентификатор кодека : A_AAC-2
Продолжительность : 45 м. 25 с.
Битрейт : 192 Кбит/сек
Каналы : 2 канала
Расположение каналов : Front: L R
Частота : 48,0 КГц
Частота кадров : 46,875 кадров/сек (1024 SPF)
Метод сжатия : С потерями
Размер потока : 61,5 Мбайт (9%)
Заголовок : ТВ-3
Язык : Russian
Default : Да
Forced : Нет
Аудио #2
Идентификатор : 3
Формат : AAC
Формат/Информация : Advanced Audio Codec
Профиль формата : LC
Идентификатор кодека : A_AAC-2
Продолжительность : 45 м. 25 с.
Битрейт : 353 Кбит/сек
Каналы : 6 каналов
Расположение каналов : Front: L C R, Side: L R, LFE
Частота : 48,0 КГц
Частота кадров : 46,875 кадров/сек (1024 SPF)
Метод сжатия : С потерями
Задержка видео : 9 мс.
Размер потока : 114 Мбайт (17%)
Язык : English
Default : Нет
Forced : Нет
Аудио #3
Идентификатор : 4
Формат : AAC
Формат/Информация : Advanced Audio Codec
Профиль формата : LC
Идентификатор кодека : A_AAC-2
Продолжительность : 45 м. 25 с.
Битрейт : 132 Кбит/сек
Каналы : 2 канала
Расположение каналов : Front: L R
Частота : 48,0 КГц
Частота кадров : 46,875 кадров/сек (1024 SPF)
Метод сжатия : С потерями
Задержка видео : 9 мс.
Размер потока : 42,5 Мбайт (6%)
Язык : Spanish
Default : Нет
Forced : Нет
Аудио #4
Идентификатор : 5
Формат : AAC
Формат/Информация : Advanced Audio Codec
Профиль формата : LC
Идентификатор кодека : A_AAC-2
Продолжительность : 45 м. 25 с.
Битрейт : 132 Кбит/сек
Каналы : 2 канала
Расположение каналов : Front: L R
Частота : 48,0 КГц
Частота кадров : 46,875 кадров/сек (1024 SPF)
Метод сжатия : С потерями
Задержка видео : 9 мс.
Размер потока : 42,6 Мбайт (6%)
Язык : French
Default : Нет
Forced : Нет
Аудио #5
Идентификатор : 6
Формат : AAC
Формат/Информация : Advanced Audio Codec
Профиль формата : LC
Идентификатор кодека : A_AAC-2
Продолжительность : 45 м. 25 с.
Битрейт : 132 Кбит/сек
Каналы : 2 канала
Расположение каналов : Front: L R
Частота : 48,0 КГц
Частота кадров : 46,875 кадров/сек (1024 SPF)
Метод сжатия : С потерями
Задержка видео : 9 мс.
Размер потока : 42,6 Мбайт (6%)
Язык : German
Default : Нет
Forced : Нет
Аудио #6
Идентификатор : 7
Формат : AAC
Формат/Информация : Advanced Audio Codec
Профиль формата : LC
Идентификатор кодека : A_AAC-2
Продолжительность : 45 м. 25 с.
Битрейт : 129 Кбит/сек
Каналы : 2 канала
Расположение каналов : Front: L R
Частота : 48,0 КГц
Частота кадров : 46,875 кадров/сек (1024 SPF)
Метод сжатия : С потерями
Задержка видео : 9 мс.
Размер потока : 42,0 Мбайт (6%)
Язык : Japanese
Default : Нет
Forced : Нет
Текст #1
Идентификатор : 8
Формат : UTF-8
Идентификатор кодека : S_TEXT/UTF8
Идентификатор кодека/Информация : UTF-8 Plain Text
Продолжительность : 42 м. 33 с.
Битрейт : 90 бит/сек
ElementCount : 486
Размер потока : 28,3 Кбайт (0%)
Язык : Russian
Default : Да
Forced : Нет
Текст #2
Идентификатор : 9
Формат : PGS
Режим смешивания : zlib
Идентификатор кодека : S_HDMV/PGS
Идентификатор кодека/Информация : Picture based subtitle format used on BDs/HD-DVDs
Продолжительность : 43 м. 15 с.
Битрейт : 39,9 Кбит/сек
ElementCount : 1012
Размер потока : 12,4 Мбайт (2%)
Язык : English
Default : Нет
Forced : Нет
Текст #3
Идентификатор : 10
Формат : PGS
Режим смешивания : zlib
Идентификатор кодека : S_HDMV/PGS
Идентификатор кодека/Информация : Picture based subtitle format used on BDs/HD-DVDs
Продолжительность : 45 м. 8 с.
Битрейт : 28,5 Кбит/сек
ElementCount : 754
Размер потока : 9,22 Мбайт (1%)
Язык : Spanish
Default : Нет
Forced : Нет
Текст #4
Идентификатор : 11
Формат : PGS
Режим смешивания : zlib
Идентификатор кодека : S_HDMV/PGS
Идентификатор кодека/Информация : Picture based subtitle format used on BDs/HD-DVDs
Продолжительность : 45 м. 8 с.
Битрейт : 24,6 Кбит/сек
ElementCount : 754
Размер потока : 7,94 Мбайт (1%)
Язык : French
Default : Нет
Forced : Нет
Текст #5
Идентификатор : 12
Формат : PGS
Режим смешивания : zlib
Идентификатор кодека : S_HDMV/PGS
Идентификатор кодека/Информация : Picture based subtitle format used on BDs/HD-DVDs
Продолжительность : 45 м. 8 с.
Битрейт : 34,5 Кбит/сек
ElementCount : 996
Размер потока : 11,1 Мбайт (2%)
Язык : German
Default : Нет
Forced : Нет
Текст #6
Идентификатор : 13
Формат : PGS
Режим смешивания : zlib
Идентификатор кодека : S_HDMV/PGS
Идентификатор кодека/Информация : Picture based subtitle format used on BDs/HD-DVDs
Продолжительность : 45 м. 12 с.
Битрейт : 18,2 Кбит/сек
ElementCount : 896
Размер потока : 5,89 Мбайт (1%)
Язык : Japanese
Default : Нет
Forced : Нет
Меню
00:00:00.000 : en:Chapter 01
00:01:26.211 : en:Chapter 02
00:01:57.200 : en:Chapter 03
00:06:37.021 : en:Chapter 04
00:10:14.947 : en:Chapter 05
00:12:45.556 : en:Chapter 06
00:14:34.331 : en:Chapter 07
00:16:32.074 : en:Chapter 08
00:24:54.367 : en:Chapter 09
00:29:59.380 : en:Chapter 10
00:33:14.617 : en:Chapter 11
00:35:41.639 : en:Chapter 12
00:40:02.608 : en:Chapter 13
00:42:13.739 : en:Chapter 14
00:44:47.059 : en:Chapter 15



   Похожие торренты   Торрент   Размер 
В этой теме нет новых непрочитанных сообщений. Секретные материалы: Борьба за будущее / The X Files (1998) BDRip 720p от Leonardo | Режиссерская версия | D, P, P2, A

348 | 57

5.76 ГБ

В этой теме нет новых непрочитанных сообщений. Секретные материалы / The X-Files [S06] (1998) BDRip-HEVC 1080p | ТВ-3

2 | 4

19.32 ГБ

В этой теме нет новых непрочитанных сообщений. Секретные материалы / The X Files [05x01-03 из 20] (1997-1998) HDTVRip 720p от MediaClub | ТВ3, Ren-TV, ОРТ

11 | 15

7.98 ГБ

В этой теме нет новых непрочитанных сообщений. Секретные материалы / The X Files [05x01-03 из 20] (1997-1998) HDTVRip 720p от MediaClub | ТВ3, Ren-TV, ОРТ

14 | 5

4.59 ГБ

В этой теме нет новых непрочитанных сообщений. Секретные материалы / The X Files [05x01-13 из 20] (1997-1998) HDTVRip 720p от MediaClub | ТВ3, Ren-TV, ОРТ

14 | 13

19.68 ГБ

В этой теме нет новых непрочитанных сообщений. Секретные материалы / The X Files [05x01 из 20] (1997-1998) HDTVRip 720p от MediaClub | ТВ3, Ren-TV, ОРТ

25 | 4

1.32 ГБ

В этой теме нет новых непрочитанных сообщений. Секретные материалы: 2 в 1 / The X-files: 2 in 1 (1998-2008) BDRip 1080p от NNNB

129 | 45

15.89 ГБ




Вы не можете начинать темы
Вы не можете отвечать на сообщения
Вы не можете редактировать свои сообщения
Вы не можете удалять свои сообщения
Вы не можете добавлять вложения

Перейти:  
 Вход
ppkBB3cker v.2 © 2008-2014 @ PPK
[ Time : 0.037s | 17 Queries | GZIP : Off ]

cron