img image001 image001 image001 image001 image001 image001 image001 image001 image001 image001 image001 image001 image001 image001 image001 image001

Planets Sun Sun Sun
Статистика раздачи
Автор: Снежана | Размер: 38.26 ГБ | Добавлен: 15 фев 2018
Раздают: 0    Качают: 2
Скачать торрент
Скачать торрент
Описание торрента

СообщениеДобавлено: 15 фев 2018 

Инспектор Купер (3 сезон 1-18 серии из 20) Невидимый враг

Перевод: Не требуется, cубтитры: отсутствуют
Формат: WEBRip 1080p, MKV, H.264, AC3
Страна: Россия
Режиссер: Сергей Артимович, Александра Бутько, Александр Картохин
Жанр: приключения, детектив, криминал
Всего серий: 20
Продолжительность: 18 х ~ 00:50:00
Год выпуска: 2017

В ролях: Олег Чернов, Артём Цуканов, Алексей Аптовцев, Евгения Игумнова, Максим Литовченко, Наталья Высочанская, Евгений Ибрагимов, Алексей Штукин, Георгий Пицхелаури, Анвар Либабов, Сергей Палмер, Дмитрий Соловьёв (II), Вадим Лымарь, Оксана Базилевич, Егор Петренко, Евгения Глотова, Юрий Чулков, Алеся Тучина, Екатерина Шумакова, Анастасия Лазо, Олег Метелев, Александр Петров (V), Михаил Бракоренко, Дмитрий Лебедев, Алексей Федькин, Александр Удальцов

Описание: Добро с кулаками – это о нем! Новые серии приключенческого детективного фильма «Купер» посвящены новым подвигам лучшего участкового страны – Алексея Куприянова. Он живет и работает в самом обычном российском городке, в самом обычном жилом районе «Арсенал». Но Купер как никто знает, что за внешне сонным невыразительным фасадом «Арсенала» разыгрываются настоящие драмы, совершаются дерзкие преступления, проворачиваются незаконные сделки. Он был очень талантливым оперативником, перед ним открывались отличные карьерные возможности. Но при исполнении погиб его друг и коллега, и Купер, плюнув на возможные звания и регалии, ушел «работать на земле», то есть стал участковым. Только так он смог продолжить поиски убийц друга. Рутинная, ежедневная его работа заключается в том, чтобы поддерживать порядок в районе, где очень многие стремятся его нарушить. Кто-то поджег автосервис, кто-то «втюхивает» подросткам наркотики. Как тени из прошлого, на «землю» Купера возвращаются из тюрьмы рецидивисты. Криминальные трупы, странные кражи, подозрительные несчастные случи на стройке…. Каждый день – новая битва.

Рейтинг и доп. информация:


Видео: 1920x1080 (16:9), 25 fps, AVC MPEG-4 (x264), ~ 6000 kbps , 0.116 bit/pixel
Аудио: 48 kHz, AC3, 2/0 (L,R) ch, ~192.00 kbps avg

Внимание! Раздача ведётся путём добавления новых серий. При каждом добавлении создаётся новый торрент.
Чтобы начать докачку новой серии, пользователям необходимо сделать следующее:
1. Остановить скачивание.
2. Удалить старый торрент у себя из клиента (старые серии удалять не надо).
3. Скачать новый торрент и запустить его у себя в клиенте вместо старого, при этом указать клиенту путь в старую папку куда и должно происходить скачивание новых серий. Ваш клиент при этом должен произвести хеширование (проверку) старой папки и будет докачивать только те серии, которых у вас ещё нет. Старые серии при этом не удаляются, а продолжают раздаваться! Eсли вы уже удалили старые серии, то предотвратить повторную закачку старых серий можно, отжав галочку в соответствующих местах при запуске нового торрента.


Общее
Уникальный идентификатор : 178800402924144029061113856610621819145 (0x8683B47B46219E5E8B498BED7A658909)
Полное имя : F:\Фильмы торренты\Inspektor.Kuper.03.2017.WEB-DL.(1080p).Nikolspup\Inspektor.Kuper.03.(01.seriya).2017.WEB-DL.(1080p).Nikolspup.mkv
Формат : Matroska
Версия формата : Version 4 / Version 2
Размер файла : 2,12 Гбайт
Продолжительность : 49 м. 4 с.
Режим общего битрейта : Постоянный
Общий поток : 6174 Кбит/сек
Дата кодирования : UTC 2018-02-02 03:18:40
Программа кодирования : mkvmerge v7.8.0 ('River Man') 32bit built on Apr 3 2015 12:11:22
Библиотека кодирования : libebml v1.3.1 + libmatroska v1.4.2

Видео
Идентификатор : 1
Формат : AVC
Формат/Информация : Advanced Video Codec
Профиль формата :
Настройки формата : 2 Ref Frames
Параметр CABAC формата : Нет
Параметр RefFrames формата : 2 кадра
Идентификатор кодека : V_MPEG4/ISO/AVC
Продолжительность : 49 м. 4 с.
Вид битрейта : Постоянный
Битрейт : 6000 Кбит/сек
Ширина : 1920 пикселей
Высота : 1080 пикселей
Соотношение сторон : 16:9
Режим частоты кадров : Постоянный
Частота кадров : 25,000 кадров/сек
Стандарт вещания : PAL
Цветовое пространство : YUV
Субдискретизация насыщенности : 4:2:0
Битовая глубина : 8 бит
Тип развёртки : Прогрессивная
Бит/(Пиксели*Кадры) : 0.116
Размер потока : 2,05 Гбайт (97%)
Default : Нет
Forced : Нет
Цветовой диапазон : Limited
Основные цвета : BT.709
Характеристики трансфера : BT.709
Коэффициенты матрицы : BT.709

Аудио
Идентификатор : 2
Формат : AC-3
Формат/Информация : Audio Coding 3
Идентификатор кодека : A_AC3
Продолжительность : 49 м. 4 с.
Вид битрейта : Постоянный
Битрейт : 192 Кбит/сек
Каналы : 2 канала
Расположение каналов : Front: L R
Частота : 48,0 КГц
Частота кадров : 31,250 кадров/сек (1536 SPF)
Битовая глубина : 16 бит
Метод сжатия : С потерями
Размер потока : 67,4 Мбайт (3%)
Язык : Russian
ServiceKind/String : Complete Main
Default : Да
Forced : Да

Общее
Уникальный идентификатор : 242432890051855995381500598798708696419 (0xB662E051A05F0D2EA9C1E58E5AB8E563)
Полное имя : F:\Фильмы торренты\Inspektor.Kuper.03.2017.WEB-DL.(1080p).Nikolspup\Inspektor.Kuper.03.(02.seriya).2017.WEB-DL.(1080p).Nikolspup.mkv
Формат : Matroska
Версия формата : Version 4 / Version 2
Размер файла : 2,14 Гбайт
Продолжительность : 49 м. 36 с.
Режим общего битрейта : Постоянный
Общий поток : 6168 Кбит/сек
Дата кодирования : UTC 2018-02-02 03:20:01
Программа кодирования : mkvmerge v7.8.0 ('River Man') 32bit built on Apr 3 2015 12:11:22
Библиотека кодирования : libebml v1.3.1 + libmatroska v1.4.2

Видео
Идентификатор : 1
Формат : AVC
Формат/Информация : Advanced Video Codec
Профиль формата :
Настройки формата : 2 Ref Frames
Параметр CABAC формата : Нет
Параметр RefFrames формата : 2 кадра
Идентификатор кодека : V_MPEG4/ISO/AVC
Продолжительность : 49 м. 35 с.
Вид битрейта : Постоянный
Битрейт : 6000 Кбит/сек
Ширина : 1920 пикселей
Высота : 1080 пикселей
Соотношение сторон : 16:9
Режим частоты кадров : Постоянный
Частота кадров : 25,000 кадров/сек
Стандарт вещания : PAL
Цветовое пространство : YUV
Субдискретизация насыщенности : 4:2:0
Битовая глубина : 8 бит
Тип развёртки : Прогрессивная
Бит/(Пиксели*Кадры) : 0.116
Размер потока : 2,07 Гбайт (97%)
Default : Нет
Forced : Нет
Цветовой диапазон : Limited
Основные цвета : BT.709
Характеристики трансфера : BT.709
Коэффициенты матрицы : BT.709

Аудио
Идентификатор : 2
Формат : AC-3
Формат/Информация : Audio Coding 3
Идентификатор кодека : A_AC3
Продолжительность : 49 м. 36 с.
Вид битрейта : Постоянный
Битрейт : 192 Кбит/сек
Каналы : 2 канала
Расположение каналов : Front: L R
Частота : 48,0 КГц
Частота кадров : 31,250 кадров/сек (1536 SPF)
Битовая глубина : 16 бит
Метод сжатия : С потерями
Размер потока : 68,1 Мбайт (3%)
Язык : Russian
ServiceKind/String : Complete Main
Default : Да
Forced : Да









Понравился релиз? Жми +



   Похожие торренты   Торрент   Размер 
В этой теме нет новых непрочитанных сообщений. Инспектор Купер (3 сезон 1-20 серии из 20) Невидимый враг (Сергей Артимович, Александра Бутько, Александр Картохин) [2017, приключения, детектив, криминал, WEBRip 1080p]

4 | 0

42.41 ГБ

В этой теме нет новых непрочитанных сообщений. Инспектор Купер (3 сезон 1-16 серии из 20) Невидимый враг (Сергей Артимович, Александра Бутько, Александр Картохин) [2017, приключения, детектив, криминал, WEBRip 1080p]

0 | 0

33.98 ГБ

В этой теме нет новых непрочитанных сообщений. Инспектор Купер (3 сезон 1-12 серии из 20) Невидимый враг (Сергей Артимович, Александра Бутько, Александр Картохин) [2017, приключения, детектив, криминал, WEBRip 1080p]

7 | 0

25.67 ГБ

В этой теме нет новых непрочитанных сообщений. Инспектор Купер (3 сезон 1-18 серии из 20) Невидимый враг (Сергей Артимович, Александра Бутько, Александр Картохин) [2017, приключения, детектив, криминал, SATRip]

26 | 20

11.21 ГБ

В этой теме нет новых непрочитанных сообщений. Инспектор Купер (3 сезон 1-12 серии из 20) Невидимый враг (Сергей Артимович, Александра Бутько, Александр Картохин) [2017, приключения, детектив, криминал, HDTVRip]

43 | 11

7.09 ГБ

В этой теме нет новых непрочитанных сообщений. Инспектор Купер (3 сезон 1-12 серии из 20) Невидимый враг (Сергей Артимович, Александра Бутько, Александр Картохин) [2017, приключения, детектив, криминал, HDTVRip-AVC]

2 | 0

9.06 ГБ

В этой теме нет новых непрочитанных сообщений. Инспектор Купер (3 сезон 1-18 серии из 20) Невидимый враг (Сергей Артимович, Александра Бутько, Александр Картохин) [2017, приключения, детектив, криминал, HDTVRip-AVC]

0 | 7

13.33 ГБ




Вы не можете начинать темы
Вы не можете отвечать на сообщения
Вы не можете редактировать свои сообщения
Вы не можете удалять свои сообщения
Вы не можете добавлять вложения

Перейти:  
 Вход
ppkBB3cker v.2 © 2008-2014 @ PPK
[ Time : 0.069s | 17 Queries | GZIP : Off ]

cron