img image001 image001 image001 image001 image001 image001 image001 image001 image001 image001 image001 image001 image001 image001 image001 image001

Planets Sun Sun Sun
Статистика раздачи
Автор: Снежана | Размер: 14.74 ГБ | Добавлен: 19 фев 2018
Раздают: 28    Качают: 11
Скачать торрент
Скачать торрент
Описание торрента

СообщениеДобавлено: 19 фев 2018 

Инспектор Купер (3 сезон 1-20 серии из 20) Невидимый враг

Перевод: Не требуется, cубтитры: отсутствуют
Формат: HDTVRip-AVC, MKV, H.264, AC3
Страна: Россия
Режиссер: Сергей Артимович, Александра Бутько, Александр Картохин
Жанр: приключения, детектив, криминал
Всего серий: 20
Продолжительность: 20 х ~ 00:50:00
Год выпуска: 2017

В ролях: Олег Чернов, Артём Цуканов, Алексей Аптовцев, Евгения Игумнова, Максим Литовченко, Наталья Высочанская, Евгений Ибрагимов, Алексей Штукин, Георгий Пицхелаури, Анвар Либабов, Сергей Палмер, Дмитрий Соловьёв (II), Вадим Лымарь, Оксана Базилевич, Егор Петренко, Евгения Глотова, Юрий Чулков, Алеся Тучина, Екатерина Шумакова, Анастасия Лазо, Олег Метелев, Александр Петров (V), Михаил Бракоренко, Дмитрий Лебедев, Алексей Федькин, Александр Удальцов

Описание: Добро с кулаками – это о нем! Новые серии приключенческого детективного фильма «Купер» посвящены новым подвигам лучшего участкового страны – Алексея Куприянова. Он живет и работает в самом обычном российском городке, в самом обычном жилом районе «Арсенал». Но Купер как никто знает, что за внешне сонным невыразительным фасадом «Арсенала» разыгрываются настоящие драмы, совершаются дерзкие преступления, проворачиваются незаконные сделки. Он был очень талантливым оперативником, перед ним открывались отличные карьерные возможности. Но при исполнении погиб его друг и коллега, и Купер, плюнув на возможные звания и регалии, ушел «работать на земле», то есть стал участковым. Только так он смог продолжить поиски убийц друга. Рутинная, ежедневная его работа заключается в том, чтобы поддерживать порядок в районе, где очень многие стремятся его нарушить. Кто-то поджег автосервис, кто-то «втюхивает» подросткам наркотики. Как тени из прошлого, на «землю» Купера возвращаются из тюрьмы рецидивисты. Криминальные трупы, странные кражи, подозрительные несчастные случи на стройке…. Каждый день – новая битва.

Рейтинг и доп. информация:


Видео: 1024x576 (16:9), 25 fps, AVC MPEG-4 (x264), ~ 2000 kbps , 0.136 bit/pixel
Аудио: 48 kHz, AC3, 2/0 (L,R) ch, ~192.00 kbps avg
Общее
Уникальный идентификатор : 213581466267032398765423300248488756918 (0xA0AE4B4D15E1AD3D83D565753B15C6B6)
Полное имя : C:\Inspektor.Kuper.(3 сезон).(2017).HDTVRip.(AVC).\01.Inspektor.Kuper.(s03).(2017).HDTVRip.AVC.mkv
Формат : Matroska
Версия формата : Version 2
Размер файла : 762 Мбайт
Продолжительность : 48 м. 34 с.
Общий поток : 2194 Кбит/сек
Дата кодирования : UTC 2018-02-01 22:07:01
Программа кодирования : mkvmerge v7.8.0 ('River Man') 32bit built on Apr 3 2015 12:11:22
Библиотека кодирования : libebml v1.3.1 + libmatroska v1.4.2

Видео
Идентификатор : 1
Формат : AVC
Формат/Информация : Advanced Video Codec
Профиль формата :
Настройки формата : CABAC / 9 Ref Frames
Параметр CABAC формата : Да
Параметр RefFrames формата : 9 кадров
Идентификатор кодека : V_MPEG4/ISO/AVC
Продолжительность : 48 м. 34 с.
Битрейт : 2000 Кбит/сек
Ширина : 1024 пикселя
Высота : 576 пикселей
Соотношение сторон : 16:9
Режим частоты кадров : Постоянный
Частота кадров : 25,000 кадров/сек
Цветовое пространство : YUV
Субдискретизация насыщенности : 4:2:0
Битовая глубина : 8 бит
Тип развёртки : Прогрессивная
Бит/(Пиксели*Кадры) : 0.136
Размер потока : 680 Мбайт (89%)
Библиотека кодирования : x264 core 146 r2538 121396c
Настройки программы : cabac=1 / ref=9 / deblock=1:-2:-1 / analyse=0x3:0x133 / me=umh / subme=9 / psy=1 / psy_rd=1.00:0.15 / mixed_ref=1 / me_range=32 / chroma_me=1 / trellis=2 / 8x8dct=1 / cqm=0 / deadzone=21,11 / fast_pskip=0 / chroma_qp_offset=-3 / threads=18 / lookahead_threads=3 / sliced_threads=0 / nr=0 / decimate=1 / interlaced=0 / bluray_compat=0 / constrained_intra=0 / bframes=9 / b_pyramid=2 / b_adapt=2 / b_bias=0 / direct=1 / weightb=1 / open_gop=0 / weightp=2 / keyint=250 / keyint_min=25 / scenecut=40 / intra_refresh=0 / rc=2pass / mbtree=0 / bitrate=2000 / ratetol=1.0 / qcomp=0.60 / qpmin=0 / qpmax=69 / qpstep=4 / cplxblur=20.0 / qblur=0.5 / ip_ratio=1.40 / pb_ratio=1.30 / aq=2:1.00
Default : Да
Forced : Нет
Цветовой диапазон : Limited
Основные цвета : BT.709
Характеристики трансфера : BT.709
Коэффициенты матрицы : BT.709

Аудио
Идентификатор : 2
Формат : AC-3
Формат/Информация : Audio Coding 3
Идентификатор кодека : A_AC3
Продолжительность : 48 м. 34 с.
Вид битрейта : Постоянный
Битрейт : 192 Кбит/сек
Каналы : 2 канала
Расположение каналов : Front: L R
Частота : 48,0 КГц
Частота кадров : 31,250 кадров/сек (1536 SPF)
Битовая глубина : 16 бит
Метод сжатия : С потерями
Размер потока : 66,7 Мбайт (9%)
ServiceKind/String : Complete Main
Default : Да
Forced : Нет











   Похожие торренты   Торрент   Размер 
В этой теме нет новых непрочитанных сообщений. Инспектор Купер (3 сезон 1-18 серии из 20) Невидимый враг (Сергей Артимович, Александра Бутько, Александр Картохин) [2017, приключения, детектив, криминал, HDTVRip]

17 | 9

10.61 ГБ

В этой теме нет новых непрочитанных сообщений. Инспектор Купер (3 сезон 1-16 серии из 20) Невидимый враг (Сергей Артимович, Александра Бутько, Александр Картохин) [2017, приключения, детектив, криминал, HDTVRip]

4 | 5

9.43 ГБ

В этой теме нет новых непрочитанных сообщений. Инспектор Купер (3 сезон 1-14 серии из 20) Невидимый враг (Сергей Артимович, Александра Бутько, Александр Картохин) [2017, приключения, детектив, криминал, HDTVRip-AVC]

0 | 2

10.44 ГБ

В этой теме нет новых непрочитанных сообщений. Инспектор Купер (3 сезон 1-16 серии из 20) Невидимый враг (Сергей Артимович, Александра Бутько, Александр Картохин) [2017, приключения, детектив, криминал, HDTVRip-AVC]

4 | 0

11.87 ГБ

В этой теме нет новых непрочитанных сообщений. Инспектор Купер (3 сезон 1-12 серии из 20) Невидимый враг (Сергей Артимович, Александра Бутько, Александр Картохин) [2017, приключения, детектив, криминал, HDTVRip-AVC]

2 | 0

9.06 ГБ

В этой теме нет новых непрочитанных сообщений. Инспектор Купер (3 сезон 1-14 серии из 20) Невидимый враг (Сергей Артимович, Александра Бутько, Александр Картохин) [2017, приключения, детектив, криминал, HDTVRip]

0 | 0

8.26 ГБ

В этой теме нет новых непрочитанных сообщений. Инспектор Купер (3 сезон 1-12 серии из 20) Невидимый враг (Сергей Артимович, Александра Бутько, Александр Картохин) [2017, приключения, детектив, криминал, HDTVRip]

43 | 11

7.09 ГБ




Вы не можете начинать темы
Вы не можете отвечать на сообщения
Вы не можете редактировать свои сообщения
Вы не можете удалять свои сообщения
Вы не можете добавлять вложения

Перейти:  
 Вход
ppkBB3cker v.2 © 2008-2014 @ PPK
[ Time : 0.036s | 19 Queries | GZIP : Off ]

cron