img image001 image001 image001 image001 image001 image001 image001 image001 image001 image001 image001 image001 image001 image001 image001 image001

Planets Sun Sun Sun
Статистика раздачи
Автор: Снежана | Размер: 21.9 ГБ | Добавлен: 19 фев 2018
Раздают: 10    Качают: 0
Скачать торрент
Скачать торрент
Описание торрента

СообщениеДобавлено: 19 фев 2018 

Лабиринты (1-12 серии из 16)

Перевод: Не требуется, cубтитры: отсутствуют
Формат: WEB-DL, MKV, H.264, AC3
Страна: Россия
Режиссер: Юрий Владовский
Жанр: мелодрама
Всего серий: 16
Продолжительность: 12 x ~ 00:51:04
Год выпуска: 2017
В ролях: Елена Вожакина, Дмитрий Пчела, Татьяна Лютаева, Полина Филоненко, Артур Литвинов, Стефан Отто, Елена Крайняя, Андрей Курносов, Алина Кикеля, Светлана Казарцева, Сергей Паршин, Любовь Макеева, Надежда Азоркина, Максим Антипов, Виктор Бабич, Александр Павельев, Ольга Самошина, Евгений Такс, Арсений Мыцык, Степан Балакшин, Ник Тихонов, Антон Багмет, Анастасия Ступина
Описание:
У Марины (Елена Вожакина) в жизни все хорошо. Успешная карьера в крупной компании, любящий муж Сергей и родители (Татьяна Лютаева и Сергей Паршин). Омрачает счастье героини только одно – она уже десять лет замужем, но никак не может забеременеть, не помогает даже ЭКО. Медицинских причин для этого нет, врачи лишь разводят руками. Марина же все больше винит себя. Она уверена, что причина ее бесплодия – давний аборт, который она сделала еще в молодости. Марина решается на усыновление, но муж отказывается воспитывать чужого ребенка, с чужими генами. Героиня не подозревает, в чем истинная причина такой категоричности супруга.



Видео: 1920x1080 (1.76:1), 25 fps, AVC ~5.120 Mbps avg, 0.099 bit/pixel
Аудио: 48 kHz, АС3, 2 ch, (Front: L R) ~192.00 kbps avg

Доп. информация:
Релиз OlLanDGroup

Внимание! Раздача ведётся путём добавления новых серий. При каждом добавлении создаётся новый торрент.
Чтобы начать докачку новой серии, пользователям необходимо сделать следующее:
1. Остановить скачивание.
2. Удалить старый торрент у себя из клиента (старые серии удалять не надо).
3. Скачать новый торрент и запустить его у себя в клиенте вместо старого, при этом указать клиенту путь в старую папку куда и должно происходить скачивание новых серий. Ваш клиент при этом должен произвести хеширование (проверку) старой папки и будет докачивать только те серии, которых у вас ещё нет. Старые серии при этом не удаляются, а продолжают раздаваться! Eсли вы уже удалили старые серии, то предотвратить повторную закачку старых серий можно, отжав галочку в соответствующих местах при запуске нового торрента.

Общее
Уникальный идентификатор : 210308062412229803377431373771226511871 (0x9E37DC07D62C9FB1AE0D02DD868479FF)
Полное имя : C:\Users\Michael\Downloads\Labirinty.2018.WEB-DL(1080p).OlLanDGroup\01.Labirinty.2018.WEB-DL(1080p).OlLanDGroup.mkv
Формат : Matroska
Версия формата : Version 2
Размер файла : 1,70 Гбайт
Продолжительность : 46 м. 3 с.
Общий поток : 5294 Кбит/сек
Дата кодирования : UTC 2018-02-13 01:25:37
Программа кодирования : mkvmerge v7.8.0 ('River Man') 32bit built on Apr 3 2015 12:11:22
Библиотека кодирования : libebml v1.3.1 + libmatroska v1.4.2

Видео
Идентификатор : 1
Формат : AVC
Формат/Информация : Advanced Video Codec
Профиль формата : High@L4
Параметр CABAC формата : Да
Параметр RefFrames формата : 4 кадра
Идентификатор кодека : V_MPEG4/ISO/AVC
Продолжительность : 46 м. 3 с.
Битрейт : 5120 Кбит/сек
Ширина : 1920 пикселей
Высота : 1080 пикселей
Соотношение сторон : 16:9
Режим частоты кадров : Постоянный
Частота кадров : 25,000 кадров/сек
Цветовое пространство : YUV
Субдискретизация насыщенности : 4:2:0
Битовая глубина : 8 бит
Тип развёртки : Прогрессивная
Бит/(Пиксели*Кадры) : 0.099
Размер потока : 1,61 Гбайт (94%)
Библиотека кодирования : x264 core 142
Настройки программы : cabac=1 / ref=3 / deblock=1:0:0 / analyse=0x3:0x113 / me=hex / subme=7 / psy=1 / psy_rd=1.00:0.00 / mixed_ref=1 / me_range=16 / chroma_me=1 / trellis=1 / 8x8dct=1 / cqm=0 / deadzone=21,11 / fast_pskip=1 / chroma_qp_offset=-2 / threads=48 / lookahead_threads=8 / sliced_threads=0 / nr=0 / decimate=1 / interlaced=0 / bluray_compat=0 / constrained_intra=0 / bframes=6 / b_pyramid=2 / b_adapt=1 / b_bias=0 / direct=1 / weightb=1 / open_gop=0 / weightp=2 / keyint=50 / keyint_min=26 / scenecut=0 / intra_refresh=0 / rc_lookahead=40 / rc=2pass / mbtree=1 / bitrate=5120 / ratetol=1.0 / qcomp=0.60 / qpmin=0 / qpmax=69 / qpstep=4 / cplxblur=20.0 / qblur=0.5 / vbv_maxrate=7680 / vbv_bufsize=20480 / nal_hrd=none / filler=0 / ip_ratio=1.40 / aq=1:1.00
Язык : English
Default : Да
Forced : Нет

Аудио
Идентификатор : 2
Формат : AC-3
Формат/Информация : Audio Coding 3
Параметр Endianness формата : Big
Идентификатор кодека : A_AC3
Продолжительность : 46 м. 3 с.
Вид битрейта : Постоянный
Битрейт : 192 Кбит/сек
Каналы : 2 канала
Расположение каналов : Front: L R
Частота : 48,0 КГц
Частота кадров : 31,250 кадров/сек (1536 SPF)
Битовая глубина : 16 бит
Метод сжатия : С потерями
Размер потока : 63,2 Мбайт (4%)
ServiceKind/String : Complete Main
Default : Да
Forced : Нет







   Похожие торренты   Торрент   Размер 
В этой теме нет новых непрочитанных сообщений. Лабиринты (1-6 серии из 16) (Юрий Владовский) [2017, мелодрама, WEB-DLRip]

26 | 12

3.27 ГБ

В этой теме нет новых непрочитанных сообщений. Лабиринты (1-3 серии из 16) (Юрий Владовский) [2017, мелодрама, WEB-DLRip-AVC]

0 | 0

1.73 ГБ

В этой теме нет новых непрочитанных сообщений. Лабиринты (1-3 серии из 16) (Юрий Владовский) [2017, мелодрама, SATRip]

0 | 0

1.76 ГБ

В этой теме нет новых непрочитанных сообщений. Лабиринты (1-9 серии из 16) (Юрий Владовский) [2017, мелодрама, WEB-DLRip]

20 | 33

4.98 ГБ

В этой теме нет новых непрочитанных сообщений. Лабиринты (1-6 серии из 16) (Юрий Владовский) [2017, мелодрама, WEB-DLRip-AVC]

9 | 0

3.56 ГБ

В этой теме нет новых непрочитанных сообщений. Лабиринты (1-6 серии из 16) (Юрий Владовский) [2017, мелодрама, WEB-DL 720p]

0 | 0

7.51 ГБ

В этой теме нет новых непрочитанных сообщений. Лабиринты (1-6 серии из 16) (Юрий Владовский) [2017, мелодрама, SATRip]

0 | 0

3.51 ГБ




Вы не можете начинать темы
Вы не можете отвечать на сообщения
Вы не можете редактировать свои сообщения
Вы не можете удалять свои сообщения
Вы не можете добавлять вложения

Перейти:  
 Вход
ppkBB3cker v.2 © 2008-2014 @ PPK
[ Time : 2.196s | 17 Queries | GZIP : Off ]

cron