img image001 image001 image001 image001 image001 image001 image001 image001 image001 image001 image001 image001 image001 image001 image001 image001

Planets Sun Sun Sun
Статистика раздачи
Автор: Снежана | Размер: 3.32 ГБ | Добавлен: 09 мар 2018
Раздают: 4    Качают: 0
Скачать торрент
Скачать торрент
Описание торрента

СообщениеДобавлено: 09 мар 2018 

Менталист (1-3 серии из 16)

Перевод: Не требуется, cубтитры: отсутствуют
Формат: WEBRip 720p, MKV, H.264, AC3
Страна: Россия, Украина, Великобритания
Режиссер: Алексей Мурадов
Жанр: драма, детектив, криминал
Всего серий: 16
Продолжительность: 3 х ~ 00:44:00
Год выпуска: 2018

В ролях: Йехезкель Лазаров, Анастасия Микульчина, Игорь Оробей, Нодар Сирадзе, Валерия Бурдужа, Александр Мохов, Юлия Ромашина, Денис Карасёв, Данила Дунаев, Антон Соколов (II), Ирина Нестерова, Евгений Якушевский, Алёна Галлиардт, Андрей Руденский, Дмитрий Гусев, Константин Третьяков, Елизавета Лотова, Илья Ильиных, Максим Драченин, Александр Дуденков, Пётр Нестеров, Евгений Сафронов, Екатерина Волкова, Елена Полякова, Николай Козак, Маргарита Дьяченкова, Мария Романова, Галина Звягинцева, Сергей Комаров (II), Эдуард Флёров, Екатерина Рокотова, Инна Коляда, Веста Буркот, Марина Правкина, Полина Шашуро, Маша Токарева, Олег Карпенко, Анастасия Крылова (II), Евгения Ахременко

Описание: В центре сериала – 42-летний Даниил Романов, консультант особого криминального отдела полиции. Он превосходный менталист, психолог-практик и манипулятор, некогда выдававший себя за экстрасенса и ясновидящего, способного читать чужие мысли. Даниил обладает живым умом, феноменальной наблюдательностью, а также выдающимися способностями к гипнозу и внушению. Он – человек со множеством секретов, которые начинают раскрываться на протяжении сериала. Романов далеко не ангел, и за свою жизнь, как он сам признается, сделал немало сомнительного ради личной выгоды. Часто выступая на телевидении с демонстрацией своих способностей, он добился широкого признания и сумел заработать неплохой капитал. Но все изменилось, когда герой в очередном телешоу дал унизительную характеристику опасному маньяку по кличке Демон....

Рейтинг и доп. информация:


Видео: 1280x720 (16:9), 25 fps, AVC MPEG-4 (x264), ~ 3000 kbps avg, 0.130 bit/pixel
Аудио: 48 kHz, АС3, 2/0 (L,R), ~192.00 kbps avg
Внимание! Раздача ведётся путём добавления новых серий. При каждом добавлении создаётся новый торрент.
Чтобы начать докачку новой серии, пользователям необходимо сделать следующее:
1. Остановить скачивание.
2. Удалить старый торрент у себя из клиента (старые серии удалять не надо).
3. Скачать новый торрент и запустить его у себя в клиенте вместо старого, при этом указать клиенту путь в старую папку куда и должно происходить скачивание новых серий. Ваш клиент при этом должен произвести хеширование (проверку) старой папки и будет докачивать только те серии, которых у вас ещё нет. Старые серии при этом не удаляются, а продолжают раздаваться! Eсли вы уже удалили старые серии, то предотвратить повторную закачку старых серий можно, отжав галочку в соответствующих местах при запуске нового торрента.


Общее
Уникальный идентификатор : 214309446976324755709408097735197974836 (0xA13A7F856D30EA85B5C3F65A49F1E134)
Полное имя : C:\01.Менталист .WEB-DL (720p).mkv
Формат : Matroska
Версия формата : Version 2
Размер файла : 1,14 Гбайт
Продолжительность : 52 м. 2 с.
Общий поток : 3146 Кбит/сек
Дата кодирования : UTC 2018-03-05 20:58:54
Программа кодирования : mkvmerge v7.8.0 ('River Man') 32bit built on Apr 3 2015 12:11:22
Библиотека кодирования : libebml v1.3.1 + libmatroska v1.4.2

Видео
Идентификатор : 1
Формат : AVC
Формат/Информация : Advanced Video Codec
Профиль формата :
Настройки формата : CABAC / 4 Ref Frames
Параметр CABAC формата : Да
Параметр RefFrames формата : 4 кадра
Идентификатор кодека : V_MPEG4/ISO/AVC
Продолжительность : 52 м. 2 с.
Битрейт : 3000 Кбит/сек
Ширина : 1280 пикселей
Высота : 720 пикселей
Соотношение сторон : 16:9
Режим частоты кадров : Постоянный
Частота кадров : 25,000 кадров/сек
Цветовое пространство : YUV
Субдискретизация насыщенности : 4:2:0
Битовая глубина : 8 бит
Тип развёртки : Прогрессивная
Бит/(Пиксели*Кадры) : 0.130
Размер потока : 1,05 Гбайт (92%)
Библиотека кодирования : x264 core 142 r2491 24e4fed
Настройки программы : cabac=1 / ref=3 / deblock=1:0:0 / analyse=0x3:0x113 / me=hex / subme=7 / psy=1 / psy_rd=1.00:0.00 / mixed_ref=1 / me_range=16 / chroma_me=1 / trellis=1 / 8x8dct=1 / cqm=0 / deadzone=21,11 / fast_pskip=1 / chroma_qp_offset=-2 / threads=16 / lookahead_threads=2 / sliced_threads=0 / nr=0 / decimate=1 / interlaced=0 / bluray_compat=0 / constrained_intra=0 / bframes=3 / b_pyramid=2 / b_adapt=1 / b_bias=0 / direct=1 / weightb=1 / open_gop=0 / weightp=2 / keyint=250 / keyint_min=25 / scenecut=40 / intra_refresh=0 / rc_lookahead=40 / rc=abr / mbtree=1 / bitrate=3000 / ratetol=1.0 / qcomp=0.60 / qpmin=0 / qpmax=69 / qpstep=4 / ip_ratio=1.40 / aq=1:1.00
Default : Да
Forced : Нет
Цветовой диапазон : Limited
Характеристики трансфера : BT.601
Коэффициенты матрицы : BT.601

Аудио
Идентификатор : 2
Формат : AC-3
Формат/Информация : Audio Coding 3
Идентификатор кодека : A_AC3
Продолжительность : 52 м. 2 с.
Вид битрейта : Постоянный
Битрейт : 192 Кбит/сек
Каналы : 2 канала
Расположение каналов : Front: L R
Частота : 48,0 КГц
Частота кадров : 31,250 кадров/сек (1536 SPF)
Битовая глубина : 16 бит
Метод сжатия : С потерями
Размер потока : 71,5 Мбайт (6%)
ServiceKind/String : Complete Main
Default : Да
Forced : Нет












   Похожие торренты   Торрент   Размер 
В этой теме нет новых непрочитанных сообщений. Менталист (1-8 серии из 16) (Алексей Мурадов) [2018, драма, детектив, криминал, WEBRip 720p]

6 | 0

8.7 ГБ

В этой теме нет новых непрочитанных сообщений. Менталист (1-7 серии из 16) (Алексей Мурадов) [2018, драма, детектив, криминал, WEBRip 720p]

12 | 0

7.62 ГБ

В этой теме нет новых непрочитанных сообщений. Менталист (1- серии из 16) (Алексей Мурадов) [2018, драма, детектив, криминал, WEBRip 720p]

9 | 0

1.14 ГБ

В этой теме нет новых непрочитанных сообщений. Менталист (1-2 серии из 16) (Алексей Мурадов) [2018, драма, детектив, криминал, WEBRip 720p]

8 | 0

2.28 ГБ

В этой теме нет новых непрочитанных сообщений. Менталист (1-9 серии из 16) (Алексей Мурадов) [2018, драма, детектив, криминал, WEBRip 720p]

14 | 2

9.78 ГБ

В этой теме нет новых непрочитанных сообщений. Менталист (1-3 серии из 16) (Алексей Мурадов) [2018, драма, детектив, криминал, SATRip]

0 | 0

2.15 ГБ

В этой теме нет новых непрочитанных сообщений. Менталист (1-11 серии из 16) (Алексей Мурадов ) [2018, драма, детектив, триллер, WEBRip]

54 | 35

6.54 ГБ




Вы не можете начинать темы
Вы не можете отвечать на сообщения
Вы не можете редактировать свои сообщения
Вы не можете удалять свои сообщения
Вы не можете добавлять вложения

Перейти:  
 Вход
ppkBB3cker v.2 © 2008-2014 @ PPK
[ Time : 0.025s | 16 Queries | GZIP : Off ]

cron