img image001 image001 image001 image001 image001 image001 image001 image001 image001 image001 image001 image001 image001 image001 image001 image001

Planets Sun Sun Sun
Статистика раздачи
Автор: Снежана | Размер: 6.36 ГБ | Добавлен: 14 мар 2018
Раздают: 18    Качают: 2
Скачать торрент
Скачать торрент
Описание торрента

СообщениеДобавлено: 14 мар 2018 

Чужая (1-8 серии из 8 )


Перевод: Не требуется
Cубтитры: отсутствуют
Формат: HDTVRip 720p, MKV, H264, AC3
Страна: Россия
Режиссер: Павел Мальков
Жанр: мелодрама
Продолжительность: 8 х ~ 00:44:00
Год выпуска: 2018
В ролях: Елена Аросьева, Дмитрий Исаев, Евгений Пронин, Денис Матросов, Светлана Щедрина, Диана Дезмари, Галина Бокашевская, Михаил Разумовский, Вячеслав Аркунов, Полина Ульянова (II), Алёша Шаблюк
Описание: Катя Полякова (Елена Аросьева) два года назад попала в автомобильную аварию. Сейчас она проходит реабилитацию, швы заживают отлично. Ее во всем поддерживает любящий муж Сергей (Дмитрий Исаев). Девушку вгоняет в отчаяние только одно – она потеряла память, и за эти годы так ничего и не смогла вспомнить: ни аварию, ни мужа, ни свою прошлую жизнь. Все вокруг кажется Кате чужим. Недавно в парке она встретила знакомого из прошлой жизни - Дмитрия (Евгений Пронин), которого тоже не смогла вспомнить. Дмитрий узнал ее, но быстро ушел, ничего не объяснив. Лишь попросил не рассказывать ничего мужу...



Видео: 1280x720 (16:9), 23,976 fps, AVC MPEG-4 (x264), , ~ 2 071 Кбит/сек, 0.090 bit/pixel
Аудио: 48 kHz, AC3 Dolby Digital, 2/0 (L,R) ch, ~192 kbps avg








Общее
Уникальный идентификатор : 158592175699935949800781155032222223812 (0x774FBDF489B668D4CE0D4CA090BD4DC4)
Полное имя : E:\Закачка-2\Chuzhaya.01.seriya.2018.HDTVRip (720p).mkv
Формат : Matroska
Версия формата : Version 4 / Version 2
Размер файла : 850 Мбайт
Продолжительность : 51 м.
Общий поток : 2309 Кбит/сек
Программа кодирования : XviD4PSP 7.0.446 DAILY
Библиотека кодирования : Lavf57.71.100 / Lavf57.71.100
ErrorDetectionType : Per level 1
ENCODING_INFO : MPEGTS > MKV / H264 > X264 CRF 21.0 HQ / MP2 > AC3 CBR 192kbps

Видео
Идентификатор : 1
Формат : AVC
Формат/Информация : Advanced Video Codec
Профиль формата :
Параметр CABAC формата : Да
Параметр ReFrames формата : 4 кадра
Идентификатор кодека : V_MPEG4/ISO/AVC
Продолжительность : 51 м.
Битрейт : 2071 Кбит/сек
Ширина : 1280 пикселей
Высота : 720 пикселей
Соотношение сторон : 16:9
Режим частоты кадров : Постоянный
Частота кадров : 25,000 кадров/сек
Цветовое пространство : YUV
Субдискретизация насыщенности : 4:2:0
Битовая глубина : 8 бит
Тип развёртки : MBAFF
Метод сохранения типа развёртки : Чередующиеся поля
Порядок развёртки : Верхнее поле первое
Бит/(Пиксели*Кадры) : 0.090
Размер потока : 762 Мбайт (90%)
Библиотека кодирования : x264 core 155 r2901M 7d0ff22
Настройки программы : cabac=1 / ref=3 / deblock=1:-2:-2 / analyse=0x3:0x133 / me=hex / subme=7 / psy=1 / psy_rd=1.00:0.20 / mixed_ref=1 / me_range=16 / chroma_me=1 / trellis=1 / 8x8dct=1 / cqm=0 / deadzone=21,11 / fast_pskip=1 / chroma_qp_offset=-3 / threads=5 / lookahead_threads=1 / sliced_threads=0 / nr=0 / decimate=1 / interlaced=tff / bluray_compat=0 / constrained_intra=0 / bframes=3 / b_pyramid=2 / b_adapt=2 / b_bias=0 / direct=3 / weightb=1 / open_gop=0 / weightp=0 / keyint=250 / keyint_min=25 / scenecut=40 / intra_refresh=0 / rc_lookahead=40 / rc=crf / mbtree=1 / crf=21.0 / qcomp=0.60 / qpmin=0 / qpmax=69 / qpstep=4 / ip_ratio=1.40 / aq=1:1.00
Default : Да
Forced : Нет

Аудио
Идентификатор : 2
Формат : AC-3
Формат/Информация : Audio Coding 3
Расширение режима : CM (complete main)
Параметр Endianness формата : Big
Идентификатор кодека : A_AC3
Продолжительность : 51 м.
Вид битрейта : Постоянный
Битрейт : 192 Кбит/сек
Каналы : 2 канала
Расположение каналов : Front: L R
Частота : 48,0 КГц
Частота кадров : 31,250 кадров/сек (1536 spf)
Битовая глубина : 16 бит
Метод сжатия : С потерями
Размер потока : 70,7 Мбайт (8%)
Язык : Russian
Default : Да
Forced : Нет






   Похожие торренты   Торрент   Размер 
В этой теме нет новых непрочитанных сообщений. Чужая (1-8 серии из 8) (Павел Мальков) [2018, мелодрама, HDTVRip]

99 | 8

4.35 ГБ

В этой теме нет новых непрочитанных сообщений. Чужая (1-6 серии из 8) (Павел Мальков) [2018, мелодрама, WEB-DLRip-AVC]

2 | 0

3.89 ГБ

В этой теме нет новых непрочитанных сообщений. Чужая (1-2 серии из 8) (Павел Мальков) [2018, мелодрама, WEB-DLRip]

2 | 0

1.27 ГБ

В этой теме нет новых непрочитанных сообщений. Чужая (1-2 серии из 8) (Павел Мальков) [2018, Мелодрама, WEB-DLRip-AVC]

2 | 0

1.29 ГБ

В этой теме нет новых непрочитанных сообщений. Чужая (1-8 серии из 8) (Павел Мальков) [2018, мелодрама, криминальная драма, SATRip]

25 | 0

5.49 ГБ

В этой теме нет новых непрочитанных сообщений. Чужая дочь / Одинокий папаша (1-8 серии из 8) (Сергей Газаров) [2016, мелодрама, детектив, криминал, HDTVRip 720p]

54 | 18

9.99 ГБ

В этой теме нет новых непрочитанных сообщений. Морские дьяволы. Смерч. Судьбы (1-14 серии из 14 ) (Александр Якимчук, Александр Картохин, Павел Мальков) [2013-2014, боевик, детектив, криминал, WEBRip]

2 | 6

20.34 ГБ




Вы не можете начинать темы
Вы не можете отвечать на сообщения
Вы не можете редактировать свои сообщения
Вы не можете удалять свои сообщения
Вы не можете добавлять вложения

Перейти:  
 Вход
ppkBB3cker v.2 © 2008-2014 @ PPK
[ Time : 0.045s | 18 Queries | GZIP : Off ]

cron