img image001 image001 image001 image001 image001 image001 image001 image001 image001 image001 image001 image001 image001 image001 image001

Planets Sun Sun Sun
Статистика раздачи
Автор: Снежана | Размер: 15.72 ГБ | Добавлен: 17 мар 2018
Раздают: 16    Качают: 4
Скачать торрент
Скачать торрент
Описание торрента

СообщениеДобавлено: 17 мар 2018 

Золотая орда (1-8 серии из 16)


Перевод: Не требуется
Cубтитры: отсутствуют
Формат: HDTV, TS, H264, AC3/MP2
Страна: Россия
Режиссер: Тимур Алпатов
Жанр: мелодрама, драма, приключения
Всего серий: 16
Продолжительность: 8 х ~ 00:50:00
Год выпуска: 2018

В ролях: Юлия Пересильд, Светлана Колпакова, Александр Устюгов, Рамиль Сабитов, Сабина Ахмедова, Санжар Мади, Сергей Пускепалис, Артур Иванов, Аружан Джазильбекова, Дина Тасбулатова, Евгения Дмитриева, Лариса Домаскина, Сергей Соцердотский, Борис Каморзин, Владимир Верёвочкин, Сергей Гурьев, Юрий Тарасов, Даулет Абдыгапаров, Нафиса Хайруллина, Эльмира Калимуллина, Виктор Немец, Сейдулла Молдаханов, Турар Мураталиев, Карина Андоленко, Андрей Удалов, Анна Скиданова, Аскар Ильясов, Феруза Рузиева, Дилия Рузиева, Василий Бочкарёв, Александр Ким

Описание: Конец XIII-го века. В столицу Руси прибывает посланник Золотой Орды – Менгу-Темир, красавец и ценитель женской красоты. Он приехал, чтобы угнать в Орду тысячи русских воинов, но готов довольствоваться лишь частью, если Великий князь Ярослав отдаст княгиню Устинью, жену его брата Бориса. Ярослав не готов нарушить законы Веры и Чести, но Борис сам идет на этот шаг, надеясь, что эта жертва обеспечит ему княжеский престол. Устинья с караваном отправляется на чужбину. Менгу оставляет Ярославу «подарок» от Великого хана – юную Наргиз, которая пробуждает князя к жизни и ставит его перед роковым выбором. На одной чаше весов – любовь и страсть, на другой – престол и жизнь самой Наргиз, которую не принимает ни народ, ни законная жена Ярослава.



Видео: 1920x1080i (16:9), 25,000 fps, AVC MPEG-4 (x264), High@L4, ~ 4 877 Кбит/сек, 0.094 bit/pixel
Аудио#1: Русский:48 kHz, AC3 Dolby Digital, 3/2 (L,C,R,l,r) + LFE ch, ~ 384 kbps avg
Аудио#2: Русский:48 kHz, MP2, 2/0 (L,R) ch, ~ 192 kbps avg

Внимание! Раздача ведётся путём добавления новых серий. При каждом добавлении создаётся новый торрент.
Чтобы начать докачку новой серии, пользователям необходимо сделать следующее:
1. Остановить скачивание.
2. Удалить старый торрент у себя из клиента (старые серии удалять не надо).
3. Скачать новый торрент и запустить его у себя в клиенте вместо старого, при этом указать клиенту путь в старую папку куда и должно происходить скачивание новых серий. Ваш клиент при этом должен произвести хеширование (проверку) старой папки и будет докачивать только те серии, которых у вас ещё нет. Старые серии при этом не удаляются, а продолжают раздаваться! Eсли вы уже удалили старые серии, то предотвратить повторную закачку старых серий можно, отжав галочку в соответствующих местах при запуске нового торрента.








Общее
Идентификатор : 1 (0x1)
Полное имя : E:\Закачка-2\01.Zolotaja orda.HDTV(1080i).GeneralFilm.ts
Формат : MPEG-TS
Размер файла : 2,05 Гбайт
Продолжительность : 51 м.
Режим общего битрейта : Переменный
Общий поток : 5743 Кбит/сек

Видео
Идентификатор : 1904 (0x770)
Идентификатор меню : 80 (0x50)
Формат : AVC
Формат/Информация : Advanced Video Codec
Профиль формата : High@L4
Параметр CABAC формата : Да
Параметр ReFrames формата : 3 кадра
Параметр GOP формата : M=4, N=32
Идентификатор кодека : 27
Продолжительность : 51 м.
Битрейт : 4877 Кбит/сек
Ширина : 1920 пикселей
Высота : 1080 пикселей
Соотношение сторон : 16:9
Частота кадров : 25,000 кадров/сек
Стандарт вещания : Component
Цветовое пространство : YUV
Субдискретизация насыщенности : 4:2:0
Битовая глубина : 8 бит
Тип развёртки : Чересстрочная
Метод сохранения типа развёртки : Раздельные поля
Порядок развёртки : Верхнее поле первое
Бит/(Пиксели*Кадры) : 0.094
Размер потока : 1,74 Гбайт (85%)
Цветовой диапазон : Limited
Основные цвета : BT.709
Характеристики трансфера : BT.709
Коэффициенты матрицы : BT.709

Аудио #1
Идентификатор : 2904 (0xB58)
Идентификатор меню : 80 (0x50)
Формат : AC-3
Формат/Информация : Audio Coding 3
Расширение режима : CM (complete main)
Параметр Endianness формата : Big
Идентификатор кодека : 6
Продолжительность : 51 м.
Вид битрейта : Постоянный
Битрейт : 384 Кбит/сек
Каналы : 6 каналов
Расположение каналов : Front: L C R, Side: L R, LFE
Частота : 48,0 КГц
Частота кадров : 31,250 кадров/сек (1536 spf)
Метод сжатия : С потерями
Задержка видео : -40 мс.
Размер потока : 140 Мбайт (7%)
Язык : Russian

Аудио #2
Идентификатор : 2905 (0xB59)
Идентификатор меню : 80 (0x50)
Формат : MPEG Audio
Версия формата : Version 1
Профиль формата : Layer 2
Идентификатор кодека : 3
Продолжительность : 51 м.
Вид битрейта : Постоянный
Битрейт : 192 Кбит/сек
Каналы : 2 канала
Частота : 48,0 КГц
Метод сжатия : С потерями
Задержка видео : -40 мс.
Размер потока : 70,1 Мбайт (3%)
Язык : Russian






   Похожие торренты   Торрент   Размер 
В этой теме нет новых непрочитанных сообщений. Золотая орда (1-12 серии из 16) (Тимур Алпатов) [2018, мелодрама, драма, приключения, HDTV 1080i]

22 | 19

23.42 ГБ

В этой теме нет новых непрочитанных сообщений. Золотая орда (1-16 серии из 16) (Тимур Алпатов) [2018, мелодрама, драма, приключения, HDTV 1080i]

117 | 85

31.03 ГБ

В этой теме нет новых непрочитанных сообщений. Золотая орда (1-14 серии из 16) (Тимур Алпатов) [2018, мелодрама, драма, приключения, HDTV 1080i]

18 | 47

27.21 ГБ

В этой теме нет новых непрочитанных сообщений. Золотая орда (1-4 серии из 16) (Тимур Алпатов) [2018, мелодрама, драма, приключения, HDTV 1080i]

30 | 3

7.92 ГБ

В этой теме нет новых непрочитанных сообщений. Золотая орда (1-4 серии из 16) (Тимур Алпатов) [2018, мелодрама, драма, приключения, HDTVRip]

47 | 21

2.83 ГБ

В этой теме нет новых непрочитанных сообщений. Золотая орда (1-14 серии из 16) (Тимур Алпатов) [2018, мелодрама, драма, приключения, история, HDTVRip-AVC]

0 | 7

11.7 ГБ

В этой теме нет новых непрочитанных сообщений. Золотая орда (1-16 серии из 16) (Тимур Алпатов) [2018, мелодрама, драма, приключения, история, SATRip]

586 | 156

10.44 ГБ




Вы не можете начинать темы
Вы не можете отвечать на сообщения
Вы не можете редактировать свои сообщения
Вы не можете удалять свои сообщения
Вы не можете добавлять вложения

Перейти:  
 Вход
ppkBB3cker v.2 © 2008-2014 @ PPK
[ Time : 0.036s | 16 Queries | GZIP : Off ]

cron