img image001 image001 image001 image001 image001 image001 image001 image001 image001 image001 image001 image001 image001 image001 image001 image001

Planets Sun Sun Sun
Статистика раздачи
Автор: Снежана | Размер: 8.26 ГБ | Добавлен: 17 мар 2018
Раздают: 7    Качают: 0
Скачать торрент
Скачать торрент
Описание торрента

СообщениеДобавлено: 17 мар 2018 

Северный ветер (1-8 серии из 8)

Перевод: Не требуется, cубтитры: отсутствуют
Формат: WEB-DL 720p, MKV, H.264, AC3
Страна: Россия, Украина
Режиссер: Николай Гусев
Жанр: мелодрама, детектив
Всего серий: 8
Продолжительность: 8 х ~ 00:45:00
Год выпуска: 2009

В ролях: Евгений Сидихин, Олеся Судзиловская, Анатолий Белый, Юозас Будрайтис, Владимир Стержаков, Елена Казаринова, Георгий Штиль, Денис Карасёв, Ирина Скрылёва, Ирина Сидорова, Максим Лагашкин, Анна Гученкова, Дмитрий Дьяконов, Дмитрий Вайлвинд, Андрей Нагорнов, Михаил Сафронов, Олег Карин, Алексей Свиридов, Александр Стариков

Описание: Молодая шведка Виктория отправляется в Россию, чтобы разузнать подробности гибели своего мужа-журналиста Олафа, погибшего несколько лет назад при странных обстоятельствах. Виктория наверняка знает имя убийцы – это Василий Клинцов. Она хочет посмотреть в глаза человеку, убившего ее мужа, понять, что могло им двигать. Но при встрече видит в Клинцове человека в высшей степени гуманного и доброго, она не верит, что он способен на убийство. Постепенно начинает выяснятся, что действительно Клинцов не убивал Олафа, его подставили, а настоящий убийца находился все это время рядом с Викторией.

Рейтинг и доп. информация:


Видео: 1280х720 (16:9), 25 fps, AVC MPEG-4 (x264), ~ 3200 kbps , 0.131 bit/pixel
Аудио: 48 kHz, АС3, 2/0 (L,R), ~192.00 kbps avg
Общее
Уникальный идентификатор : 210916410081832918347987015592640603221 (0x9EAD05E2EE1022A5AEB93A2719696455)
Полное имя : C:\01. Северный ветер 2009.WEB-DL 720p.mkv
Формат : Matroska
Версия формата : Version 2
Размер файла : 1,02 Гбайт
Продолжительность : 44 м. 29 с.
Режим общего битрейта : Постоянный
Общий поток : 3275 Кбит/сек
Дата кодирования : UTC 2018-03-16 12:24:00
Программа кодирования : mkvmerge v7.8.0 ('River Man') 32bit built on Apr 3 2015 12:11:22
Библиотека кодирования : libebml v1.3.1 + libmatroska v1.4.2

Видео
Идентификатор : 1
Формат : AVC
Формат/Информация : Advanced Video Codec
Профиль формата :
Настройки формата : CABAC / 4 Ref Frames
Параметр CABAC формата : Да
Параметр RefFrames формата : 4 кадра
Идентификатор кодека : V_MPEG4/ISO/AVC
Продолжительность : 44 м. 29 с.
Вид битрейта : Постоянный
Битрейт : 3017 Кбит/сек
Номинальный битрейт : 3200 Кбит/сек / 3200 Кбит/сек
Ширина : 1280 пикселей
Высота : 720 пикселей
Соотношение сторон : 16:9
Режим частоты кадров : Постоянный
Частота кадров : 25,000 кадров/сек
Цветовое пространство : YUV
Субдискретизация насыщенности : 4:2:0
Битовая глубина : 8 бит
Тип развёртки : Прогрессивная
Бит/(Пиксели*Кадры) : 0.131
Размер потока : 960 Мбайт (92%)
Библиотека кодирования : x264 core 148
Настройки программы : cabac=1 / ref=2 / deblock=1:0:0 / analyse=0x3:0x113 / me=hex / subme=6 / psy=1 / psy_rd=1.00:0.00 / mixed_ref=1 / me_range=16 / chroma_me=1 / trellis=1 / 8x8dct=1 / cqm=0 / deadzone=21,11 / fast_pskip=1 / chroma_qp_offset=-2 / threads=1 / lookahead_threads=1 / sliced_threads=0 / nr=0 / decimate=1 / interlaced=0 / bluray_compat=0 / constrained_intra=0 / bframes=3 / b_pyramid=2 / b_adapt=1 / b_bias=0 / direct=1 / weightb=1 / open_gop=0 / weightp=1 / keyint=250 / keyint_min=25 / scenecut=0 / intra_refresh=0 / rc_lookahead=30 / rc=cbr / mbtree=1 / bitrate=3200 / ratetol=1.0 / qcomp=0.60 / qpmin=0 / qpmax=69 / qpstep=4 / vbv_maxrate=3200 / vbv_bufsize=1600 / nal_hrd=cbr / filler=1 / ip_ratio=1.40 / aq=1:1.00
Default : Да
Forced : Нет

Аудио
Идентификатор : 2
Формат : AC-3
Формат/Информация : Audio Coding 3
Идентификатор кодека : A_AC3
Продолжительность : 44 м. 29 с.
Вид битрейта : Постоянный
Битрейт : 192 Кбит/сек
Каналы : 2 канала
Расположение каналов : Front: L R
Частота : 48,0 КГц
Частота кадров : 31,250 кадров/сек (1536 SPF)
Битовая глубина : 16 бит
Метод сжатия : С потерями
Задержка видео : -61 мс.
Размер потока : 61,1 Мбайт (6%)
ServiceKind/String : Complete Main
Default : Да
Forced : Нет








   Похожие торренты   Торрент   Размер 
В этой теме нет новых непрочитанных сообщений. Северный ветер [01-08 из 08] (2009) HDTVRip-AVC от Files-x

30 | 5

5.4 ГБ

В этой теме нет новых непрочитанных сообщений. Еще не вечер (1-12 серии из 12) (Николай Борц) [2009, детектив, криминал, экранизация, WEBRip-AVC]

20 | 3

6.7 ГБ

В этой теме нет новых непрочитанных сообщений. Любовь по приказу (1-8 серии из 8) (Николай Борц) [2016, мелодрама, WEB-DL 720p]

21 | 5

9.36 ГБ

В этой теме нет новых непрочитанных сообщений. Любовь по приказу (1-4 серии из 8) (Николай Борц) [2016, мелодрама, WEB-DL 720p]

11 | 4

4.63 ГБ

В этой теме нет новых непрочитанных сообщений. Любовь по приказу (1-6 серии из 8) (Николай Борц) [2016, мелодрама, WEB-DL 720p]

0 | 0

6.99 ГБ

В этой теме нет новых непрочитанных сообщений. Любовь по приказу (1-8 серии из 8) (Николай Борц) [2016, мелодрама, HDTVRip 720p]

16 | 1

10.33 ГБ

В этой теме нет новых непрочитанных сообщений. Любовь по приказу (1-4 серии из 8) (Николай Борц) [2016, мелодрама, HDTVRip 720p]

2 | 0

5.06 ГБ




Вы не можете начинать темы
Вы не можете отвечать на сообщения
Вы не можете редактировать свои сообщения
Вы не можете удалять свои сообщения
Вы не можете добавлять вложения

Перейти:  
 Вход
ppkBB3cker v.2 © 2008-2014 @ PPK
[ Time : 0.024s | 16 Queries | GZIP : Off ]

cron