img image001 image001 image001 image001 image001 image001 image001 image001 image001 image001 image001 image001 image001 image001 image001 image001

Planets Sun Sun Sun
Статистика раздачи
Автор: Снежана | Размер: 28.97 ГБ | Добавлен: 21 мар 2018
Раздают: 3    Качают: 4
Скачать торрент
Скачать торрент
Описание торрента

СообщениеДобавлено: 21 мар 2018 

Обратный отсчёт (1-14 серии из 16)

Перевод: Не требуется, cубтитры: отсутствуют
Формат: WEBRip 1080p, MKV, H.264, AC3
Страна: Россия
Режиссер: Сергей Попов, Дмитрий Аверин, Максим Кубринский
Жанр: детектив
Всего серий: 16
Продолжительность: 14 x ~ 00:52:00
Год выпуска: 2017

В ролях: Юрий Колокольников, Полина Максимова, Анастасия Лазо, Алексей Ведерников (II), Дмитрий Воробьёв (II), Вера Журавлева (III), Денис Гильманов, Александр Северов, Алёна Каримская, Артур Федынко, Алексей Федькин, Павел Харизанов, Ольга Гордийчук, Ирина Муртазаева, Владимир Маслаков, Ирина Никифорова, Николай Данилов, Татьяна Полонская, Дмитрий Гульнев, Ирина Коровина, Андрей Тенетко, Евгений Антонов, Мария Виноградова (II), Иван Глибин, Ольга Сухорукова, Вячеслав Савицкий (II), Кира Кауфман, Игорь Чехов, Петр Журавлёв, Ольга Белявская, Татьяна Трунова, Павел Скобликов, Елена Смагина, Карен Галстян, Сергей Амосов, Анна Сычёва, Александр Большаков, Николай Яковлев (III), Олег Малышев (II), Анастасия Кипина, Андрей Перович, Даниил Шигапов, Валентина Трухачева, Алексей Шильников, Татьяна Власова (II), Юрий Стебаков, Андрей Вергелис, Юлия Шахмуратова, Валерий Ковалев, Мария Шманина, Денис Пьянов, Екатерина Зорина, Валентин Кузнецов (II), Владимир Миронов (II), Леся Андреева, Семён Афендулов, Кирилл Ульянов, Алексей Парасевич, Мария Жиганова, Антон Сычёв, Николай Колосов, Игорь Милетский, Сергей Воробьёв (IV), Алексей Удальцов, Владислав Фролов, Сергей Николаев (VI), Максим Архипов, Кирилл Балобан, Руслан Барабанов, Татьяна Гончарова

Описание: Константин Корсаков ведёт запутанные уголовные дела. Он хладнокровен и беспощаден к самому себе. Каждый день Корсаков имеет дело с жертвами злоумышленников, которые во что бы то ни стало хотят отомстить своим обидчикам. Корсакову нужно предотвратить новые преступления и удержать пострадавших от непоправимых ошибок. В этом ему помогают коллеги: старшие лейтенанты Инга Гордеева (Полина Максимова), Макс Лобов (Алексей Ведерников) и лейтенант Люся Алёхина (Анастасия Лазо).

Рейтинг и доп. информация:


Видео: 1920х1080 (16:9), 25 fps, AVC MPEG-4 (x264), ~ 6000 kbps avg, 0.116 bit/pixel
Аудио: 48 kHz, АС3, 2/0 (L,R), ~192.00 kbps avg
Внимание! Раздача ведётся путём добавления новых серий. При каждом добавлении создаётся новый торрент.
Чтобы начать докачку новой серии, пользователям необходимо сделать следующее:
1. Остановить скачивание.
2. Удалить старый торрент у себя из клиента (старые серии удалять не надо).
3. Скачать новый торрент и запустить его у себя в клиенте вместо старого, при этом указать клиенту путь в старую папку куда и должно происходить скачивание новых серий. Ваш клиент при этом должен произвести хеширование (проверку) старой папки и будет докачивать только те серии, которых у вас ещё нет. Старые серии при этом не удаляются, а продолжают раздаваться! Eсли вы уже удалили старые серии, то предотвратить повторную закачку старых серий можно, отжав галочку в соответствующих местах при запуске нового торрента.


Общее
Уникальный идентификатор : 207429390784719060205524088743542218177 (0x9C0D728FBDF54422B424E2A9E5315DC1)
Полное имя : C:\Obratnyy.otschet.2017.WEB-DL.(1080p).\Obratnyy.otschet.(01.seriya).2017.WEB-DL.(1080p).mkv
Формат : Matroska
Версия формата : Version 4 / Version 2
Размер файла : 2,07 Гбайт
Продолжительность : 48 м. 0 с.
Режим общего битрейта : Постоянный
Общий поток : 6170 Кбит/сек
Дата кодирования : UTC 2018-03-12 19:54:27
Программа кодирования : mkvmerge v7.8.0 ('River Man') 32bit built on Mar 27 2015 16:18:02
Библиотека кодирования : libebml v1.3.1 + libmatroska v1.4.2

Видео
Идентификатор : 1
Формат : AVC
Формат/Информация : Advanced Video Codec
Профиль формата :
Настройки формата : 2 Ref Frames
Параметр CABAC формата : Нет
Параметр RefFrames формата : 2 кадра
Идентификатор кодека : V_MPEG4/ISO/AVC
Продолжительность : 48 м. 0 с.
Вид битрейта : Постоянный
Битрейт : 6000 Кбит/сек
Ширина : 1920 пикселей
Высота : 1080 пикселей
Соотношение сторон : 16:9
Режим частоты кадров : Постоянный
Частота кадров : 25,000 кадров/сек
Стандарт вещания : PAL
Цветовое пространство : YUV
Субдискретизация насыщенности : 4:2:0
Битовая глубина : 8 бит
Тип развёртки : Прогрессивная
Бит/(Пиксели*Кадры) : 0.116
Размер потока : 1,96 Гбайт (95%)
Default : Нет
Forced : Нет
Цветовой диапазон : Limited
Основные цвета : BT.709
Характеристики трансфера : BT.709
Коэффициенты матрицы : BT.709

Аудио
Идентификатор : 2
Формат : AC-3
Формат/Информация : Audio Coding 3
Идентификатор кодека : A_AC3
Продолжительность : 48 м. 0 с.
Вид битрейта : Постоянный
Битрейт : 192 Кбит/сек
Каналы : 2 канала
Расположение каналов : Front: L R
Частота : 48,0 КГц
Частота кадров : 31,250 кадров/сек (1536 SPF)
Битовая глубина : 16 бит
Метод сжатия : С потерями
Размер потока : 65,9 Мбайт (3%)
Язык : Russian
ServiceKind/String : Complete Main
Default : Да
Forced : Да








   Похожие торренты   Торрент   Размер 
В этой теме нет новых непрочитанных сообщений. Обратный отсчёт (1-16 серии из 16) (Сергей Попов, Дмитрий Аверин, Максим Кубринский) [2017, детектив, WEBRip 1080p]

26 | 8

33.1 ГБ

В этой теме нет новых непрочитанных сообщений. Обратный отсчёт (1-10 серии из 16) (Сергей Попов, Дмитрий Аверин, Максим Кубринский) [2017, детектив, WEBRip 1080p]

6 | 0

20.69 ГБ

В этой теме нет новых непрочитанных сообщений. Обратный отсчёт (1-12 серии из 16) (Сергей Попов, Дмитрий Аверин, Максим Кубринский) [2017, детектив, WEBRip 1080p]

12 | 3

24.83 ГБ

В этой теме нет новых непрочитанных сообщений. Обратный отсчёт (1-16 серии из 16) (Сергей Попов, Дмитрий Аверин, Максим Кубринский) [2017, детектив, WEBRip]

92 | 14

8.7 ГБ

В этой теме нет новых непрочитанных сообщений. Обратный отсчёт (1-12 серии из 16) (Сергей Попов, Дмитрий Аверин, Максим Кубринский) [2017, детектив, WEBRip]

3 | 8

6.52 ГБ

В этой теме нет новых непрочитанных сообщений. Обратный отсчёт (1-10 серии из 16) (Сергей Попов, Дмитрий Аверин, Максим Кубринский) [2017, детектив, WEBRip]

40 | 12

5.44 ГБ

В этой теме нет новых непрочитанных сообщений. Обратный отсчёт (1-14 серии из 16) (Сергей Попов, Дмитрий Аверин, Максим Кубринский) [2017, детектив, WEBRip]

6 | 1

7.61 ГБ




Вы не можете начинать темы
Вы не можете отвечать на сообщения
Вы не можете редактировать свои сообщения
Вы не можете удалять свои сообщения
Вы не можете добавлять вложения

Перейти:  
 Вход
ppkBB3cker v.2 © 2008-2014 @ PPK
[ Time : 0.044s | 16 Queries | GZIP : Off ]

cron