img image001 image001 image001 image001 image001 image001 image001 image001 image001 image001 image001 image001 image001 image001 image001

Planets Sun Sun Sun
Статистика раздачи
Автор: Снежана | Размер: 10.15 ГБ | Добавлен: 21 мар 2018
Раздают: 10    Качают: 2
Скачать торрент
Скачать торрент
Описание торрента

СообщениеДобавлено: 21 мар 2018 

Обратный отсчёт (1-14 серии из 16)


Перевод: Не требуется
Cубтитры: отсутствуют
Формат: HDTVRip-AVC, MKV, H264, AC3
Страна: Россия
Режиссер: Сергей Попов, Дмитрий Аверин, Максим Кубринский
Жанр: детектив
Всего серий: 16
Продолжительность: 14 х ~ 00:48:00
Год выпуска: 2017

В ролях: Юрий Колокольников, Полина Максимова, Алексей Ведерников (II), Анастасия Лазо, Дмитрий Воробьёв (II), Виктор Рыбчинский, Кира Кауфман, Юлия Шахмуратова, Владимир Трезубов, Анастасия Кипина, Сергей Воробьёв (IV), Дмитрий Гудим, Пауль Орлански, Игорь Грабузов, Андрей Емельянов (II), Николай Яковлев (III), Надежда Паршина, Алина Король, Артур Федынко, Антон Колесов, Вячеслав Савицкий (II), Мария Шманина, Кирилл Стрелков, Максим Тригубчак, Маргарита Аброськина, Виталий Крылов, Алексей Федькин, Валентина Лебедева, Сергей Серёгин (II)

Описание: Константин Корсаков ведёт запутанные уголовные дела. Он хладнокровен и беспощаден к самому себе. Каждый день Корсаков имеет дело с жертвами злоумышленников, которые во что бы то ни стало хотят отомстить своим обидчикам. Корсакову нужно предотвратить новые преступления и удержать пострадавших от непоправимых ошибок. В этом ему помогают коллеги: старшие лейтенанты Инга Гордеева (Полина Максимова), Макс Лобов (Алексей Ведерников) и лейтенант Люся Алёхина (Анастасия Лазо).



Видео: 1024x576 (2.40:1), 23,976 fps, AVC MPEG-4 (x264), , ~ 2 000 Кбит/сек, 0.136 bit/pixel
Аудио: 48 kHz, AC3 Dolby Digital, 2/0 (L,R) ch, ~192 kbps avg

Внимание! Раздача ведётся путём добавления новых серий. При каждом добавлении создаётся новый торрент.
Чтобы начать докачку новой серии, пользователям необходимо сделать следующее:
1. Остановить скачивание.
2. Удалить старый торрент у себя из клиента (старые серии удалять не надо).
3. Скачать новый торрент и запустить его у себя в клиенте вместо старого, при этом указать клиенту путь в старую папку куда и должно происходить скачивание новых серий. Ваш клиент при этом должен произвести хеширование (проверку) старой папки и будет докачивать только те серии, которых у вас ещё нет. Старые серии при этом не удаляются, а продолжают раздаваться! Eсли вы уже удалили старые серии, то предотвратить повторную закачку старых серий можно, отжав галочку в соответствующих местах при запуске нового торрента.







Общее
Уникальный идентификатор : 200570819708343177247462332562835331032 (0x96E488E656322F57B3114E2CB50157D8)
Полное имя : E:\Закачка-2\01.Обратный отсчет.(2017).HDTVRip.(AVC).by.Серый1779.Files-x.mkv
Формат : Matroska
Версия формата : Version 2
Размер файла : 746 Мбайт
Продолжительность : 47 м.
Общий поток : 2194 Кбит/сек
Дата кодирования : UTC 2018-03-13 02:45:19
Программа кодирования : mkvmerge v7.8.0 ('River Man') 32bit built on Apr 3 2015 12:11:22
Библиотека кодирования : libebml v1.3.1 + libmatroska v1.4.2

Видео
Идентификатор : 1
Формат : AVC
Формат/Информация : Advanced Video Codec
Профиль формата :
Параметр CABAC формата : Да
Параметр ReFrames формата : 9 кадров
Идентификатор кодека : V_MPEG4/ISO/AVC
Продолжительность : 47 м.
Битрейт : 2000 Кбит/сек
Ширина : 1024 пикселя
Высота : 576 пикселей
Соотношение сторон : 16:9
Режим частоты кадров : Постоянный
Частота кадров : 25,000 кадров/сек
Цветовое пространство : YUV
Субдискретизация насыщенности : 4:2:0
Битовая глубина : 8 бит
Тип развёртки : Прогрессивная
Бит/(Пиксели*Кадры) : 0.136
Размер потока : 666 Мбайт (89%)
Библиотека кодирования : x264 core 146 r2538 121396c
Настройки программы : cabac=1 / ref=9 / deblock=1:-2:-1 / analyse=0x3:0x133 / me=umh / subme=9 / psy=1 / psy_rd=1.00:0.15 / mixed_ref=1 / me_range=32 / chroma_me=1 / trellis=2 / 8x8dct=1 / cqm=0 / deadzone=21,11 / fast_pskip=0 / chroma_qp_offset=-3 / threads=18 / lookahead_threads=3 / sliced_threads=0 / nr=0 / decimate=1 / interlaced=0 / bluray_compat=0 / constrained_intra=0 / bframes=9 / b_pyramid=2 / b_adapt=2 / b_bias=0 / direct=1 / weightb=1 / open_gop=0 / weightp=2 / keyint=250 / keyint_min=25 / scenecut=40 / intra_refresh=0 / rc=2pass / mbtree=0 / bitrate=2000 / ratetol=1.0 / qcomp=0.60 / qpmin=0 / qpmax=69 / qpstep=4 / cplxblur=20.0 / qblur=0.5 / ip_ratio=1.40 / pb_ratio=1.30 / aq=2:1.00
Default : Да
Forced : Нет
Цветовой диапазон : Limited
Основные цвета : BT.709
Характеристики трансфера : BT.709
Коэффициенты матрицы : BT.709

Аудио
Идентификатор : 2
Формат : AC-3
Формат/Информация : Audio Coding 3
Расширение режима : CM (complete main)
Параметр Endianness формата : Big
Идентификатор кодека : A_AC3
Продолжительность : 47 м.
Вид битрейта : Постоянный
Битрейт : 192 Кбит/сек
Каналы : 2 канала
Расположение каналов : Front: L R
Частота : 48,0 КГц
Частота кадров : 31,250 кадров/сек (1536 spf)
Метод сжатия : С потерями
Размер потока : 65,3 Мбайт (9%)
Default : Да
Forced : Нет





   Похожие торренты   Торрент   Размер 
В этой теме нет новых непрочитанных сообщений. Обратный отсчёт (1-16 серии из 16) (Сергей Попов, Дмитрий Аверин, Максим Кубринский) [2017, детектив, HDTVRip]

183 | 62

9.36 ГБ

В этой теме нет новых непрочитанных сообщений. Обратный отсчёт (1-14 серии из 16) (Сергей Попов, Дмитрий Аверин, Максим Кубринский) [2017, детектив, HDTVRip]

21 | 15

8.19 ГБ

В этой теме нет новых непрочитанных сообщений. Обратный отсчёт (1-2 серии из 16) (Сергей Попов, Дмитрий Аверин, Максим Кубринский) [2017, детектив, HDTVRip-AVC]

4 | 0

1.46 ГБ

В этой теме нет новых непрочитанных сообщений. Обратный отсчёт (1-10 серии из 16) (Сергей Попов, Дмитрий Аверин, Максим Кубринский) [2017, детектив, HDTVRip]

59 | 12

5.85 ГБ

В этой теме нет новых непрочитанных сообщений. Обратный отсчёт (1-16 серии из 16) (Сергей Попов, Дмитрий Аверин, Максим Кубринский) [2017, детектив, HDTVRip-AVC]

29 | 5

11.61 ГБ

В этой теме нет новых непрочитанных сообщений. Обратный отсчёт (1-10 серии из 16) (Сергей Попов, Дмитрий Аверин, Максим Кубринский) [2017, детектив, HDTVRip-AVC]

11 | 3

7.24 ГБ

В этой теме нет новых непрочитанных сообщений. Обратный отсчёт (1-4 серии из 16) (Сергей Попов, Дмитрий Аверин, Максим Кубринский) [2017, детектив, HDTVRip]

7 | 9

2.34 ГБ




Вы не можете начинать темы
Вы не можете отвечать на сообщения
Вы не можете редактировать свои сообщения
Вы не можете удалять свои сообщения
Вы не можете добавлять вложения

Перейти:  
 Вход
ppkBB3cker v.2 © 2008-2014 @ PPK
[ Time : 0.027s | 17 Queries | GZIP : Off ]

cron