img image001 image001 image001 image001 image001 image001 image001 image001 image001 image001 image001 image001 image001 image001 image001 image001

Planets Sun Sun Sun
Статистика раздачи
Автор: Снежана | Размер: 5.19 ГБ | Добавлен: 22 мар 2018
Раздают: 3    Качают: 2
Скачать торрент
Скачать торрент
Описание торрента

СообщениеДобавлено: 22 мар 2018 

Менталист [1-9 серия из 16]


Перевод: Не требуется
Субтитры: отсутствуют
Формат: SATRip-AVC, MKV, H.264, AC3
Страна: Россия, Украина, Великобритания
Режиссер: Алексей Мурадов
Жанр: драма, детектив, триллер
Продолжительность: 9 х ~ 00:44:00
Год выпуска: 2018
В ролях: Йехезкель Лазаров, Анастасия Микульчина, Елизавета Лотова, Илья Ильиных, Валерия Бурдужа, Максим Драченин, Игорь Оробей, Александр Дуденков, Александр Мохов, Андрей Руденский, Нодар Сирадзе, Пётр Нестеров
Описание: В центре сериала – 42-летний Даниил Романов, консультант особого криминального отдела полиции. Он превосходный менталист, психолог-практик и манипулятор, некогда выдававший себя за экстрасенса и ясновидящего, способного читать чужие мысли. Даниил обладает живым умом, феноменальной наблюдательностью, а также выдающимися способностями к гипнозу и внушению. Он - человек со множеством секретов, которые начинают раскрываться на протяжении сериала. Романов далеко не ангел, и за свою жизнь, как он сам признается, сделал немало сомнительного ради личной выгоды. Часто выступая на телевидении с демонстрацией своих способностей, он добился широкого признания и сумел заработать неплохой капитал. Но все изменилось, когда герой в очередном телешоу дал унизительную характеристику опасному маньяку по кличке Демон....



Видео: 720x400p (16:9), 25,000 fps, AVC MPEG-4 (x264), , ~ 1 500 Кбит/сек, 0.208 bit/pixel
Аудио: 48 kHz, AC3 Dolby Digital, 2/0 (L,R) ch, ~192 kbps avg

Внимание! Раздача ведётся путём добавления новых серий. При каждом добавлении создаётся новый торрент.
Чтобы начать докачку новой серии, пользователям необходимо сделать следующее:
1. Остановить скачивание.
2. Удалить старый торрент у себя из клиента (старые серии удалять не надо).
3. Скачать новый торрент и запустить его у себя в клиенте вместо старого, при этом указать клиенту путь в старую папку куда и должно происходить скачивание новых серий. Ваш клиент при этом должен произвести хеширование (проверку) старой папки и будет докачивать только те серии, которых у вас ещё нет. Старые серии при этом не удаляются, а продолжают раздаваться! Eсли вы уже удалили старые серии, то предотвратить повторную закачку старых серий можно, отжав галочку в соответствующих местах при запуске нового торрента.



Общее
Уникальный идентификатор : 177766793499356968334500897997834189442 (0x85BCA39A35D1ACD6BDC64C71CB147A82)
Полное имя : E:\Закачка-2\Mentalist.(2018).SATRip.(AVC).Files-x\01.Менталист.(2018).SATRip.(AVC).by.Серый1779.Files-x.mkv
Формат : Matroska
Версия формата : Version 2
Размер файла : 626 Мбайт
Продолжительность : 51 м.
Общий поток : 1694 Кбит/сек
Дата кодирования : UTC 2018-03-05 23:22:16
Программа кодирования : mkvmerge v7.8.0 ('River Man') 32bit built on Apr 3 2015 12:11:22
Библиотека кодирования : libebml v1.3.1 + libmatroska v1.4.2

Видео
Идентификатор : 1
Формат : AVC
Формат/Информация : Advanced Video Codec
Профиль формата :
Параметр CABAC формата : Да
Параметр ReFrames формата : 9 кадров
Идентификатор кодека : V_MPEG4/ISO/AVC
Продолжительность : 51 м.
Битрейт : 1500 Кбит/сек
Ширина : 720 пикселей
Высота : 400 пикселей
Соотношение сторон : 16:9
Режим частоты кадров : Постоянный
Частота кадров : 25,000 кадров/сек
Цветовое пространство : YUV
Субдискретизация насыщенности : 4:2:0
Битовая глубина : 8 бит
Тип развёртки : Прогрессивная
Бит/(Пиксели*Кадры) : 0.208
Размер потока : 542 Мбайт (87%)
Библиотека кодирования : x264 core 146 r2538 121396c
Настройки программы : cabac=1 / ref=9 / deblock=1:-3:-3 / analyse=0x3:0x133 / me=umh / subme=9 / psy=1 / psy_rd=1.00:0.15 / mixed_ref=1 / me_range=32 / chroma_me=1 / trellis=2 / 8x8dct=1 / cqm=0 / deadzone=21,11 / fast_pskip=0 / chroma_qp_offset=-3 / threads=18 / lookahead_threads=3 / sliced_threads=0 / nr=0 / decimate=1 / interlaced=0 / bluray_compat=0 / constrained_intra=0 / bframes=9 / b_pyramid=2 / b_adapt=2 / b_bias=0 / direct=1 / weightb=1 / open_gop=0 / weightp=2 / keyint=250 / keyint_min=25 / scenecut=40 / intra_refresh=0 / rc=2pass / mbtree=0 / bitrate=1500 / ratetol=1.0 / qcomp=0.60 / qpmin=0 / qpmax=69 / qpstep=4 / cplxblur=20.0 / qblur=0.5 / ip_ratio=1.40 / pb_ratio=1.30 / aq=2:1.00
Default : Да
Forced : Нет
Цветовой диапазон : Limited
Основные цвета : BT.601 PAL
Характеристики трансфера : BT.470 System B, BT.470 System G
Коэффициенты матрицы : BT.601

Аудио
Идентификатор : 2
Формат : AC-3
Формат/Информация : Audio Coding 3
Расширение режима : CM (complete main)
Параметр Endianness формата : Big
Идентификатор кодека : A_AC3
Продолжительность : 51 м.
Вид битрейта : Постоянный
Битрейт : 192 Кбит/сек
Каналы : 2 канала
Расположение каналов : Front: L R
Частота : 48,0 КГц
Частота кадров : 31,250 кадров/сек (1536 spf)
Метод сжатия : С потерями
Размер потока : 70,9 Мбайт (11%)
Default : Да
Forced : Нет










   Похожие торренты   Торрент   Размер 
В этой теме нет новых непрочитанных сообщений. Менталист [1-8 серия из 16] (Алексей Мурадов ) [2018, драма, детектив, триллер, SATRip-AVC]

6 | 4

4.61 ГБ

В этой теме нет новых непрочитанных сообщений. Менталист [1-7 серия из 16] (Алексей Мурадов ) [2018, драма, детектив, триллер, SATRip-AVC]

9 | 6

4.04 ГБ

В этой теме нет новых непрочитанных сообщений. Менталист [1-10 серия из 16] (Алексей Мурадов ) [2018, драма, детектив, триллер, SATRip-AVC]

22 | 14

5.78 ГБ

В этой теме нет новых непрочитанных сообщений. Менталист [1 серия из 16] / St. Martin's Lane (Sidewalks of London) (Алексей Мурадов ) [2018, драма, детектив, триллер , SATRip-AVC]

3 | 0

625.71 МБ

В этой теме нет новых непрочитанных сообщений. Менталист [1-10 серия из 16] (Алексей Мурадов ) [2018, драма, детектив, триллер, WEBRip]

68 | 6

5.96 ГБ

В этой теме нет новых непрочитанных сообщений. Менталист [1 серия из 16] (Алексей Мурадов ) [2018, драма, детектив, триллер, WEBRip]

9 | 0

648.3 МБ

В этой теме нет новых непрочитанных сообщений. Менталист [1 серия из 16] (Алексей Мурадов ) [2018, драма, детектив, триллер, WEBRip-AVC]

2 | 0

667.2 МБ




Вы не можете начинать темы
Вы не можете отвечать на сообщения
Вы не можете редактировать свои сообщения
Вы не можете удалять свои сообщения
Вы не можете добавлять вложения

Перейти:  
 Вход
ppkBB3cker v.2 © 2008-2014 @ PPK
[ Time : 0.057s | 16 Queries | GZIP : Off ]

cron