img image001 image001 image001 image001 image001 image001 image001 image001 image001 image001 image001 image001 image001 image001 image001 image001

Planets Sun Sun Sun
Статистика раздачи
Автор: Снежана | Размер: 18.47 ГБ | Добавлен: 09 апр 2018
Раздают: 8    Качают: 2
Скачать торрент
Скачать торрент
Описание торрента

СообщениеДобавлено: 09 апр 2018 

Живой (1-8 серии из 16)


Перевод: Не требуется
Субтитры: отсутствуют
Формат: HDTV 1080p, MKV, H.264, AC3
Страна: Россия, Киностудия КИТ
Режиссер: Михаил Кабанов
Жанр: детектив
Всего серий: 16
Продолжительность: 8 х ~ 00:44:00
Год выпуска: 2017

В ролях: Кирилл Кяро,Агата Муцениеце,Маруся Зыкова,Диана Пожарская,Александр Хошабаев,Александр Робак,Павел Прилучный,Николай Козак,Мария Свирид,Петар Зекавица.

Описание: История разворачивается вокруг журналиста популярного интернет-издания Олега Сорокина (Кирилл Кяро), который нападает на след могущественного синдиката, промышляющего убийствами самых богатых людей страны и присваивающего их состояние. Но проблема в том, что никто в его «теорию заговоров» не верит. Вычислив очередную жертву - банкира Лядова, Олег пытается предупредить его о грозящей опасности, но тщетно. Лядова взрывают в собственной машине. Олег продолжает расследование с удвоенной силой и убеждается, что в смерти банкира все очень неоднозначно. А вскоре и сам журналист становится мишенью таинственной преступной организации.



Видео: 1920x1080 (16:9), 25.000 fps, AVC, (Н.264) ~ 7 051 kbps avg, ~0.136 bit/pixel
Аудио: 48 kHz, AC3 Dolby Digital, 2/0 (L,R) ch, ~ 192 kbps avg

Внимание! Раздача ведётся путём добавления новых серий. При каждом добавлении создаётся новый торрент.
Чтобы начать докачку новой серии, пользователям необходимо сделать следующее:
1. Остановить скачивание.
2. Удалить старый торрент у себя из клиента (старые серии удалять не надо).
3. Скачать новый торрент и запустить его у себя в клиенте вместо старого, при этом указать клиенту путь в старую папку куда и должно происходить скачивание новых серий. Ваш клиент при этом должен произвести хеширование (проверку) старой папки и будет докачивать только те серии, которых у вас ещё нет. Старые серии при этом не удаляются, а продолжают раздаваться! Eсли вы уже удалили старые серии, то предотвратить повторную закачку старых серий можно, отжав галочку в соответствующих местах при запуске нового торрента.










Unique ID : 175609642587279038896593562580835602562 (0x841D2FD9DEFBBB2B9E0B58FF976B9082)
Complete name : E:запись с твZhivoj 2017 HDTV 1080p.R.G.GeneralfilmZhivoj.s01.e01.2017.HDTV 1080p.by.White Smoke.R.G.Generalfilm.mkv
Format : Matroska
Format version : Version 4 / Version 2
File size : 2.22 GiB
Duration : 44 min
Overall bit rate mode : Constant
Overall bit rate : 7 230 kb/s
Movie name : Zhivoj.s01.e01.2017.HDTV 1080p.by.White Smoke.R.G.Generalfilm.mkv
Encoded date : UTC 2018-04-03 15:17:25
Writing application : mkvmerge v6.8.0 ('Theme for Great Cities') 64bit built on Mar 2 2014 21:34:26
Writing library : libebml v1.3.0 + libmatroska v1.4.1

Video
ID : 1
Format : AVC
Format/Info : Advanced Video Codec
Format profile :
Format settings, CABAC : Yes
Format settings, ReFrames : 3 frames
Format settings, GOP : M=3, N=33
Codec ID : V_MPEG4/ISO/AVC
Duration : 44 min
Bit rate mode : Constant
Bit rate : 7 051 kb/s
Width : 1 920 pixels
Height : 1 080 pixels
Display aspect ratio : 16:9
Frame rate mode : Constant
Frame rate : 25.000 FPS
Standard : PAL
Color space : YUV
Chroma subsampling : 4:2:0
Bit depth : 8 bits
Scan type : Progressive
Bits/(Pixel*Frame) : 0.136
Stream size : 2.12 GiB (95%)
Default : Yes
Forced : No
Color range : Limited
Color primaries : BT.709
Transfer characteristics : BT.709
Matrix coefficients : BT.709

Audio
ID : 2
Format : AC-3
Format/Info : Audio Coding 3
Mode extension : CM (complete main)
Format settings, Endianness : Big
Codec ID : A_AC3
Duration : 44 min
Bit rate mode : Constant
Bit rate : 192 kb/s
Channel(s) : 2 channels
Channel positions : Front: L R
Sampling rate : 48.0 kHz
Frame rate : 31.250 FPS (1536 spf)
Compression mode : Lossy
Stream size : 60.5 MiB (3%)
Default : Yes
Forced : No





   Похожие торренты   Торрент   Размер 
В этой теме нет новых непрочитанных сообщений. Живой (1-4 серии из 16) (Михаил Кабанов) [2017, детектив, HDTV 1080p]

3 | 2

9.21 ГБ

В этой теме нет новых непрочитанных сообщений. Живой (1-16 серии из 16) (Михаил Кабанов) [2017, детектив, HDTV 1080p]

31 | 5

37.69 ГБ

В этой теме нет новых непрочитанных сообщений. Живой (1-14 серии из 16) (Михаил Кабанов) [2017, детектив, HDTVRip]

5 | 7

8.21 ГБ

В этой теме нет новых непрочитанных сообщений. Живой (1-10 серии из 16) (Михаил Кабанов) [2017, детектив, HDTVRip]

2 | 1

5.86 ГБ

В этой теме нет новых непрочитанных сообщений. Живой (1-16 серии из 16) (Михаил Кабанов) [2017, детектив, SATRip]

181 | 82

10.09 ГБ

В этой теме нет новых непрочитанных сообщений. Живой (1-10 серии из 16) (Михаил Кабанов) [2017, детектив, HDTVRip-AVC]

12 | 14

7.42 ГБ

В этой теме нет новых непрочитанных сообщений. Живой (1-2 серии из 16) (Михаил Кабанов) [2017, детектив, HDTVRip]

7 | 5

1.17 ГБ




Вы не можете начинать темы
Вы не можете отвечать на сообщения
Вы не можете редактировать свои сообщения
Вы не можете удалять свои сообщения
Вы не можете добавлять вложения

Перейти:  
 Вход
ppkBB3cker v.2 © 2008-2014 @ PPK
[ Time : 0.102s | 16 Queries | GZIP : Off ]

cron