img image001 image001 image001 image001 image001 image001 image001 image001 image001 image001 image001 image001 image001 image001 image001 image001

Planets Sun Sun Sun
Статистика раздачи
Автор: Снежана | Размер: 7.24 ГБ | Добавлен: 09 апр 2018
Раздают: 52    Качают: 8
Скачать торрент
Скачать торрент
Описание торрента

СообщениеДобавлено: 09 апр 2018 

Сувенир из Одессы (1-12 серии из 12)

Перевод: Не требуется, cубтитры: отсутствуют
Формат: WEB-DL, MKV, AVC, AC3
Страна: Россия, Украина
Режиссер: Олег Туранский
Жанр: детектив, мелодрама
Всего серий: 12
Продолжительность: 12 х ~ 00:45:00
Год выпуска: 2018
В ролях: Александр Соколовский, Ольга Виниченко, Станислав Боклан, Дмитрий Сова, Дмитрий Суржиков, Марк Дробот, Артем Алексеев, Александр Кобзарь
Описание:
История любви Лизы и Матвея, которая разворачивается в Одессе в период революции 1917 года. Главным героям предстоит встретиться с легендарными личностями того времени — королем налетчиков Михаилом Винницким, известным как Мишка Япончик, атаманом Григорием Котовским и генералом Алексеем Алмазовым. Персонажей связывает между собой некий сувенир, который обладает магическими свойствами…



Видео: 1280x720 (16:9), 25 fps, , AVC ~1797 kbps avg, ~0.078 bit/pixel
Аудио: 48 kHz, АС3, 2 ch, (Front: L R) ~192.00 kbps avg

General
Unique ID : 247674893210196228852123026361338352709 (0xBA547307553FD4DFAD7C10C118E4D445)
Complete name : E:\Getty\Suvenir.iz.Odessy.2018.WEB-DL.(720p).Getty\Suvenir.iz.Odessy.e01.2018.WEB-DL.(720p).Getty.mkv
Format : Matroska
Format version : Version 4 / Version 2
File size : 644 MiB
Duration : 45 min 11 s
Overall bit rate : 1 991 kb/s
Movie name : Suvenir.iz.Odessy.e01.2018.WEB-DL.(720p).Getty
Encoded date : UTC 2018-03-19 20:55:18
Writing application : mkvmerge v7.8.0 ('River Man') 32bit built on Mar 27 2015 16:18:02
Writing library : libebml v1.3.1 + libmatroska v1.4.2

Video
ID : 1
Format : AVC
Format/Info : Advanced Video Codec
Format profile :
Format settings : CABAC / 3 Ref Frames
Format settings, CABAC : Yes
Format settings, RefFrames : 3 frames
Codec ID : V_MPEG4/ISO/AVC
Duration : 45 min 11 s
Bit rate : 1 797 kb/s
Width : 1 280 pixels
Height : 720 pixels
Display aspect ratio : 16:9
Frame rate mode : Constant
Frame rate : 25.000 FPS
Color space : YUV
Chroma subsampling : 4:2:0
Bit depth : 8 bits
Scan type : Progressive
Bits/(Pixel*Frame) : 0.078
Stream size : 581 MiB (90%)
Default : Yes
Forced : No

Audio
ID : 2
Format : AC-3
Format/Info : Audio Coding 3
Format settings, Endianness : Big
Codec ID : A_AC3
Duration : 45 min 11 s
Bit rate mode : Constant
Bit rate : 192 kb/s
Channel(s) : 2 channels
Channel positions : Front: L R
Sampling rate : 48.0 kHz
Frame rate : 31.250 FPS (1536 SPF)
Bit depth : 16 bits
Compression mode : Lossy
Stream size : 62.1 MiB (10%)
Service kind : Complete Main
Default : Yes
Forced : No








   Похожие торренты   Торрент   Размер 
В этой теме нет новых непрочитанных сообщений. Сувенир из Одессы (1-6 серии из 12) (Олег Туранский) [2018, детектив, мелодрама, WEB-DL 720р]

13 | 8

3.67 ГБ

В этой теме нет новых непрочитанных сообщений. Сувенир из Одессы (1-9 серии из 12) (Олег Туранский) [2018, детектив, мелодрама, WEB-DL 720р]

7 | 1

5.47 ГБ

В этой теме нет новых непрочитанных сообщений. Сувенир из Одессы (1-5 серии из 12) (Олег Туранский) [2018, детектив, мелодрама, WEB-DL 720р]

14 | 4

3.08 ГБ

В этой теме нет новых непрочитанных сообщений. Сувенир из Одессы (1-3 серии из 12) (Олег Туранский) [2018, детектив, мелодрама, WEB-DL 720р]

10 | 0

1.88 ГБ

В этой теме нет новых непрочитанных сообщений. Сувенир из Одессы (1-8 серии из 12) (Олег Туранский) [2018, детектив, мелодрама, WEB-DL 720р]

83 | 53

4.9 ГБ

В этой теме нет новых непрочитанных сообщений. Сувенир из Одессы (1-10 серии из 12) (Олег Туранский) [2018, детектив, мелодрама, WEB-DL 720р]

2 | 0

6.07 ГБ

В этой теме нет новых непрочитанных сообщений. Сувенир из Одессы (1- серии из 12) (Олег Туранский) [2018, детектив, мелодрама, WEB-DLRip]

17 | 0

599.93 МБ




Вы не можете начинать темы
Вы не можете отвечать на сообщения
Вы не можете редактировать свои сообщения
Вы не можете удалять свои сообщения
Вы не можете добавлять вложения

Перейти:  
 Вход
ppkBB3cker v.2 © 2008-2014 @ PPK
[ Time : 0.052s | 16 Queries | GZIP : Off ]

cron