img image001 image001 image001 image001 image001 image001 image001 image001 image001 image001 image001 image001 image001 image001 image001 image001

Planets Sun Sun Sun
Статистика раздачи
Автор: Снежана | Размер: 15.82 ГБ | Добавлен: 09 апр 2018
Раздают: 4    Качают: 2
Скачать торрент
Скачать торрент
Описание торрента

СообщениеДобавлено: 09 апр 2018 

Одна жизнь на двоих / Чёрно-белый танец (1-16 серии из 16)


Перевод: Не требуется
Cубтитры: отсутствуют
Формат: WEB-DL 720p, MKV, H264, AC3
Страна: Россия
Режиссер: Рауф Кубаев
Жанр: детектив, мелодрама, семейная сага
Всего серий: 16
Продолжительность: 16 х ~ 00:50:00
Год выпуска: 2018

В ролях: Анна Каменкова, Екатерина Панасюк, Константин Воробьёв, Александр Зельский, Татьяна Лютаева, Анастасия Чистякова (II), Сергей Паршин, Борис Чистяков, Артём Крылов, Алиса Лозовская, Виктория Малекторович, Егор Кутенков, Юрий Елагин, Мария Шманина, Олег Фёдоров (III), Юлия Марченко, Андрей Абрамов, Алексей Байдаков, Егор Бакулин, Светлана Бакулина, Алла Еминцева, Анна Карелина, Анна Лапина, Виталий Олечкин, Вячеслав Савицкий (II)

Описание: По бестселлеру Анны и Сергея Литвиновых «Черно-белый танец». История любви, существующей вопреки всему. История предательства и прощения. Три судьбы сплелись в роковой треугольник перед второй мировой, которая растоптала и уничтожила все их планы и надежды. Чувства пережили страшную войну и разлуку, но стали лишь сильней. Настолько, что снова и снова повторяются: и в следующем поколении, и даже в благополучной эпохе 80-х, когда уже не дети, а внуки вынуждены испытать на себе и любовь, и ненависть длиной в полвека, чтобы понять, каково это – прожить «Одну жизнь на двоих». История начинается в 1941-м году и завершается в 1980-е, охватывая четыре драматические эпохи в жизни страны: внешне благополучную предвоенную жизнь с пугающей изнанкой репрессий и доносов, страшную войну, послевоенную разруху и спокойное двадцатилетие 60-80-х.



Видео: 1280x720p (16:9), 25,000 fps, AVC MPEG-4 (x264), High@L4, ~ 2 511 kb/s, 0.109 bit/pixel
Аудио: 48 kHz, AC3 Dolby Digital, 2/0 (L,R) ch, ~192 kbps avg








Общее
Уникальный идентификатор : 193967629224990308718542958457017427754 (0x91ECCE792F1A0947B6498A6B3749672A)
Полное имя : E:\Закачка-2\Odna.zhizn.na.dvoih.e01.2018.WEB-DL.(720p).Getty.mkv
Формат : Matroska
Версия формата : Version 4 / Version 2
Размер файла : 1000 Мбайт
Продолжительность : 50 м.
Общий поток : 2758 Кбит/сек
Название фильма : Odna.zhizn.na.dvoih.e01.2018.WEB-DL.(720p).Getty
Дата кодирования : UTC 2018-03-27 15:19:55
Программа кодирования : mkvmerge v7.8.0 ('River Man') 32bit built on Mar 27 2015 16:18:02
Библиотека кодирования : libebml v1.3.1 + libmatroska v1.4.2

Видео
Идентификатор : 1
Формат : AVC
Формат/Информация : Advanced Video Codec
Профиль формата : High@L4
Параметр CABAC формата : Да
Параметр ReFrames формата : 4 кадра
Идентификатор кодека : V_MPEG4/ISO/AVC
Продолжительность : 50 м.
Битрейт : 2511 Кбит/сек
Ширина : 1280 пикселей
Высота : 720 пикселей
Соотношение сторон : 16:9
Режим частоты кадров : Постоянный
Частота кадров : 25,000 кадров/сек
Цветовое пространство : YUV
Субдискретизация насыщенности : 4:2:0
Битовая глубина : 8 бит
Тип развёртки : Прогрессивная
Бит/(Пиксели*Кадры) : 0.109
Размер потока : 911 Мбайт (91%)
Default : Да
Forced : Нет

Аудио
Идентификатор : 2
Формат : AC-3
Формат/Информация : Audio Coding 3
Расширение режима : CM (complete main)
Параметр Endianness формата : Big
Идентификатор кодека : A_AC3
Продолжительность : 50 м.
Вид битрейта : Постоянный
Битрейт : 192 Кбит/сек
Каналы : 2 канала
Расположение каналов : Front: L R
Частота : 48,0 КГц
Частота кадров : 31,250 кадров/сек (1536 spf)
Метод сжатия : С потерями
Размер потока : 69,7 Мбайт (7%)
Default : Да
Forced : Нет






   Похожие торренты   Торрент   Размер 
В этой теме нет новых непрочитанных сообщений. Одна жизнь на двоих / Чёрно-белый танец (1-8 серии из 16) (Рауф Кубаев) [2018, детектив, мелодрама, семейная сага, WEB-DL 720p]

12 | 0

7.89 ГБ

В этой теме нет новых непрочитанных сообщений. Одна жизнь на двоих / Чёрно-белый танец (1-8 серии из 16) (Рауф Кубаев) [2018, детектив, мелодрама, семейная сага, WEB-DLRip]

43 | 4

5.07 ГБ

В этой теме нет новых непрочитанных сообщений. Одна жизнь на двоих / Чёрно-белый танец (1-16 серии из 16) (Рауф Кубаев) [2018, детектив, мелодрама, семейная сага, WEB-DL 1080p]

0 | 4

30.42 ГБ

В этой теме нет новых непрочитанных сообщений. Одна жизнь на двоих / Чёрно-белый танец (1-4 серии из 16) (Рауф Кубаев) [2018, детектив, мелодрама, семейная сага, WEB-DLRip-AVC]

31 | 13

2.57 ГБ

В этой теме нет новых непрочитанных сообщений. Одна жизнь на двоих / Чёрно-белый танец (1-12 серии из 16) (Рауф Кубаев) [2018, детектив, мелодрама, семейная сага, WEB-DLRip-AVC]

0 | 0

8.01 ГБ

В этой теме нет новых непрочитанных сообщений. Одна жизнь на двоих / Чёрно-белый танец (1-14 серии из 16) (Рауф Кубаев) [2018, детектив, мелодрама, семейная сага, WEB-DLRip-AVC]

4 | 6

9.3 ГБ

В этой теме нет новых непрочитанных сообщений. Одна жизнь на двоих / Чёрно-белый танец (1-10 серии из 16) (Рауф Кубаев) [2018, детектив, мелодрама, семейная сага, WEB-DLRip]

1 | 0

6.35 ГБ




Вы не можете начинать темы
Вы не можете отвечать на сообщения
Вы не можете редактировать свои сообщения
Вы не можете удалять свои сообщения
Вы не можете добавлять вложения

Перейти:  
 Вход
ppkBB3cker v.2 © 2008-2014 @ PPK
[ Time : 0.927s | 16 Queries | GZIP : Off ]

cron