img image001 image001 image001 image001 image001 image001 image001 image001 image001 image001 image001 image001 image001 image001 image001 image001

Planets Sun Sun Sun
Статистика раздачи
Автор: Снежана | Размер: 25.95 ГБ | Добавлен: 13 апр 2018
Раздают: 1    Качают: 2
Скачать торрент
Скачать торрент
Описание торрента

СообщениеДобавлено: 13 апр 2018 

Опер по вызову (1-20 серии из 28 )

Перевод: Не требуется
Субтитры: отсутствуют
Формат: WEB-DL 1080p, MKV, H.264, AC3
Страна: Украина
Режиссер: Тарас Ткаченко
Жанр: детектив, криминал
Всего серий: 28
Продолжительность: 20 х 00:46:00
Год выпуска: 2018

В ролях: Павел Вишняков, Слава Красовская, Александр Игнатуша, Артём Мартынишин, Александр Пожарский, Валентина Ищенко, Борислав Борисенко, Сергей Деньга

Описание: "Опер по вызову" – это остросюжетный сериал про сообразительного, харизматичного, опытного капитана Артема Трофимова. Трагическая гибель невесты в корне меняет его жизнь, а желание наказать убийцу приводит его в Департамент криминальной разведки. Работая под прикрытием в Музее милиции, Артем распутывает сложнейшие криминальные головоломки, прибегая к манипуляциям, шпионажу и мастерства перевоплощений. Помогают Трофимову психолог-криминалист Лидия, аналитик Слава, знаток оружия и единоборств Роман и начальник ДКР по прозвищу "Дед".



Видео: 1920x1080p (16:9), 25,000 fps, MPEG4 AVC (x264), High@L4 ~3880 Kbps avg, 0.075 bit/pixel
Аудио: Русский 48 kHz, AC3, 2 ch ~ 192 Kbps


Общее
Уникальный идентификатор : 253754876705256105282432799355866716865 (0xBEE7695BDF0BC21BBE99ADFA353C1AC1)
Полное имя : F:\TREKER\ТЕМР\oper_po_vyzovu_[tfile.me]\oper_po_vyzovu_[tfile.me]_e01.mkv
Формат : Matroska
Версия формата : Version 2
Размер файла : 1,34 Гбайт
Продолжительность : 46 м. 15 с.
Общий поток : 4155 Кбит/сек
Название фильма : oper_po_vyzovu_[tfile.me]
Дата кодирования : UTC 2018-03-14 09:50:27
Программа кодирования : mkvmerge v4.0.0 ('The Stars were mine') сборка от Jun 6 2010 16:18:42
Библиотека кодирования : libebml v1.0.0 + libmatroska v1.0.0
Обложка : Yes
Attachments : cover.jpg

Видео
Идентификатор : 1
Формат : AVC
Формат/Информация : Advanced Video Codec
Профиль формата : High@L4
Параметр CABAC формата : Да
Параметр ReFrames формата : 3 кадра
Идентификатор кодека : V_MPEG4/ISO/AVC
Продолжительность : 46 м. 15 с.
Битрейт : 3880 Кбит/сек
Ширина : 1920 пикселей
Высота : 1080 пикселей
Соотношение сторон : 16:9
Режим частоты кадров : Постоянный
Частота кадров : 25,000 кадров/сек
Цветовое пространство : YUV
Субдискретизация насыщенности : 4:2:0
Битовая глубина : 8 бит
Тип развёртки : Прогрессивная
Бит/(Пиксели*Кадры) : 0.075
Размер потока : 1,25 Гбайт (93%)
Default : Нет
Forced : Нет

Аудио
Идентификатор : 2
Формат : AC-3
Формат/Информация : Audio Coding 3
Расширение режима : CM (complete main)
Параметр Endianness формата : Big
Идентификатор кодека : A_AC3
Продолжительность : 46 м. 15 с.
Вид битрейта : Постоянный
Битрейт : 192 Кбит/сек
Каналы : 2 канала
Расположение каналов : Front: L R
Частота : 48,0 КГц
Частота кадров : 31,250 кадров/сек (1536 spf)
Битовая глубина : 16 бит
Метод сжатия : С потерями
Размер потока : 63,5 Мбайт (5%)
Default : Нет
Forced : Нет







Внимание! Раздача ведётся путём добавления новых серий; при каждом добавлении создётся новый торрент. Чтобы начать докачку новой серии, пользователям необходимо сделать следующее:
(1) остановить скачивание,
(2) удалить старый торрент у себя из клиента (старые серии удалять не надо),
(3) скачать новый торрент и запустить его у себя в клиенте вместо старого, при этом указать клиенту путь в старую папку куда и должно происходить скачивание новых серий.

Ваш клиент при этом должен произвести хеширование (проверку) старой папки (если не производит сам - помогите ему сделать это), и будет докачивать только те серии которых у вас ещё нет. Старые серии при этом не удаляются, а продолжают раздаваться!

Eсли вы уже удалили старые серии, то предотвратить повторную закачку старых серий можно, отжав галочку в соответсвующих местах при запуске нового торрента. По возможности, желательно не удалять старые серии как можно дольше чтобы релизёр не столько продолжал раздавать старые серии, а смог сконцентрироваться на новых.



Релиз от:

Релиз предоставлен сайтом tfile.me!!



   Похожие торренты   Торрент   Размер 
В этой теме нет новых непрочитанных сообщений. Опер по вызову (1-28 серии из 28) (Тарас Ткаченко) [2018, детектив, криминал, WEB-DL 1080p]

15 | 6

36.45 ГБ

В этой теме нет новых непрочитанных сообщений. Опер по вызову (1-13 серии из 28) (Тарас Ткаченко) [2018, детектив, криминал, WEB-DL 1080p]

4 | 0

16.79 ГБ

В этой теме нет новых непрочитанных сообщений. Опер по вызову (1-9 серии из 28) (Тарас Ткаченко) [2018, детектив, криминал, WEB-DL 1080p]

11 | 4

11.55 ГБ

В этой теме нет новых непрочитанных сообщений. Опер по вызову (1-17 серии из 28) (Тарас Ткаченко) [2018, детектив, криминал, WEB-DL 1080p]

4 | 0

21.93 ГБ

В этой теме нет новых непрочитанных сообщений. Опер по вызову (1-5 серии из 16) (Тарас Ткаченко) [2018, детектив, криминал, WEB-DL 1080p]

22 | 0

6.46 ГБ

В этой теме нет новых непрочитанных сообщений. Опер по вызову (1-24 серии из 28) (Тарас Ткаченко) [2018, детектив, криминал, WEB-DL 1080p]

11 | 1

31.33 ГБ

В этой теме нет новых непрочитанных сообщений. Опер по вызову (1-26 серии из 28) (Тарас Ткаченко) [2018, детектив, криминал, WEB-DL 1080p]

0 | 0

33.94 ГБ




Вы не можете начинать темы
Вы не можете отвечать на сообщения
Вы не можете редактировать свои сообщения
Вы не можете удалять свои сообщения
Вы не можете добавлять вложения

Перейти:  
 Вход
ppkBB3cker v.2 © 2008-2014 @ PPK
[ Time : 0.033s | 18 Queries | GZIP : Off ]

cron