img image001 image001 image001 image001 image001 image001 image001 image001 image001 image001 image001 image001 image001 image001 image001 image001
Planets Sun Sun Sun
Статистика раздачи
Автор: Снежана | Размер: 5.79 ГБ | Добавлен: 13 апр 2018
Раздают: 62    Качают: 13
Скачать торрент
Скачать торрент
Описание торрента

СообщениеДобавлено: 13 апр 2018 

Частица вселенной (1-7 серии из 7)

Перевод: Не требуется, cубтитры: отсутствуют
Формат: HDTVRip-AVC, MKV, H.264, AC3
Страна: Россия
Режиссер: Алена Званцова
Жанр: мелодрама
Всего серий: 7
Продолжительность: 1 х ~ 01:19:00, 2-7 x ~ 00:50:00
Год выпуска: 2018

В ролях: Виктория Исакова, Алексей Макаров, Сергей Пускепалис, Алексей Агранович, Анна Михалкова, Владимир Яглыч, Яна Гладких, Александра Бортич, Сергей Походаев, Елена Прудникова, Яна Сексте, Казимир Лиске, Андрей Смирнов, Микаэл Джанибекян, Сергей Шеховцов, Глеб Подгородинский, Дмитрий Куличков, Евгений Гришковец, Арина Нестерова, Алёна Лаптева, Тимур Бадалбейли, Александр Резалин, Сергей Юшкевич, Мадлен Джабраилова, София Сливина, Сергей Австриевских, Юрий Чигров

Описание: Это история о настоящих Героях. Которые живут здесь и сейчас. И на которых хочется быть похожими. Это история о настоящих Женщинах, которые умеют ждать. О людях, которые работают на космос в ЦУПе и Звёздном, на Байконуре и в институте космической медицины. Это кино о Подвиге, настоящей мужской дружбе и большой любви. О том, чего нам в этой жизни так не хватает...

Рейтинг и доп. информация:


Видео: 1024x576 (16:9), 25 fps, AVC MPEG-4 (x264), ~ 2000 kbps , 0.136 bit/pixel
Аудио: 48 kHz, АС3, 2/0 (L,R), ~192.00 kbps avg
Общее
Уникальный идентификатор : 221935477205342696662418410969201308184 (0xA6F737D72E8BE1E69FCEFB2182F6F218)
Полное имя : C:\Общее
Уникальный идентификатор : 230572935094878680379217892975940754185 (0xAD76BB64C64B3D34B74560B51E0C5B09)
Полное имя : C:\Chastica vselennoj.(2017).HDTVRip.(AVC).\01.Chastica vselennoj.(2017).HDTVRip.(AVC).mkv
Формат : Matroska
Версия формата : Version 2
Размер файла : 1,20 Гбайт
Продолжительность : 1 ч. 18 м.
Общий поток : 2194 Кбит/сек
Дата кодирования : UTC 2018-04-10 07:50:44
Программа кодирования : mkvmerge v7.8.0 ('River Man') 32bit built on Apr 3 2015 12:11:22
Библиотека кодирования : libebml v1.3.1 + libmatroska v1.4.2

Видео
Идентификатор : 1
Формат : AVC
Формат/Информация : Advanced Video Codec
Профиль формата :
Настройки формата : CABAC / 9 Ref Frames
Параметр CABAC формата : Да
Параметр RefFrames формата : 9 кадров
Идентификатор кодека : V_MPEG4/ISO/AVC
Продолжительность : 1 ч. 18 м.
Битрейт : 2000 Кбит/сек
Ширина : 1024 пикселя
Высота : 576 пикселей
Соотношение сторон : 16:9
Режим частоты кадров : Постоянный
Частота кадров : 25,000 кадров/сек
Цветовое пространство : YUV
Субдискретизация насыщенности : 4:2:0
Битовая глубина : 8 бит
Тип развёртки : Прогрессивная
Бит/(Пиксели*Кадры) : 0.136
Размер потока : 1,07 Гбайт (89%)
Библиотека кодирования : x264 core 146 r2538 121396c
Настройки программы : cabac=1 / ref=9 / deblock=1:-2:-1 / analyse=0x3:0x133 / me=umh / subme=9 / psy=1 / psy_rd=1.00:0.15 / mixed_ref=1 / me_range=32 / chroma_me=1 / trellis=2 / 8x8dct=1 / cqm=0 / deadzone=21,11 / fast_pskip=0 / chroma_qp_offset=-3 / threads=18 / lookahead_threads=3 / sliced_threads=0 / nr=0 / decimate=1 / interlaced=0 / bluray_compat=0 / constrained_intra=0 / bframes=9 / b_pyramid=2 / b_adapt=2 / b_bias=0 / direct=1 / weightb=1 / open_gop=0 / weightp=2 / keyint=250 / keyint_min=25 / scenecut=40 / intra_refresh=0 / rc=2pass / mbtree=0 / bitrate=2000 / ratetol=1.0 / qcomp=0.60 / qpmin=0 / qpmax=69 / qpstep=4 / cplxblur=20.0 / qblur=0.5 / ip_ratio=1.40 / pb_ratio=1.30 / aq=2:1.00
Default : Да
Forced : Нет
Цветовой диапазон : Limited
Основные цвета : BT.709
Характеристики трансфера : BT.709
Коэффициенты матрицы : BT.709

Аудио
Идентификатор : 2
Формат : AC-3
Формат/Информация : Audio Coding 3
Идентификатор кодека : A_AC3
Продолжительность : 1 ч. 18 м.
Вид битрейта : Постоянный
Битрейт : 192 Кбит/сек
Каналы : 2 канала
Расположение каналов : Front: L R
Частота : 48,0 КГц
Частота кадров : 31,250 кадров/сек (1536 SPF)
Битовая глубина : 16 бит
Метод сжатия : С потерями
Размер потока : 108 Мбайт (9%)
ServiceKind/String : Complete Main
Default : Да
Forced : Нет








   Похожие торренты   Торрент   Размер 
В этой теме нет новых непрочитанных сообщений. Частица вселенной (1- серии из 8) (Алена Званцова) [2018, мелодрама, HDTVRip-AVC]

19 | 0

1.2 ГБ

В этой теме нет новых непрочитанных сообщений. Частица вселенной (1-3 серии из 7) (Алена Званцова) [2018, мелодрама, HDTVRip-AVC]

10 | 2

2.76 ГБ

В этой теме нет новых непрочитанных сообщений. Частица вселенной (1-3 серии из 7) (Алена Званцова) [2018, драма, HDTVRip]

29 | 0

2.52 ГБ

В этой теме нет новых непрочитанных сообщений. Частица вселенной (1- серии из 8) (Алена Званцова) [2018, драма, HDTVRip]

5 | 0

1.09 ГБ

В этой теме нет новых непрочитанных сообщений. Частица вселенной (1-7 серии из 7) (Алена Званцова) [2018, драма, HDTVRip]

375 | 67

5.28 ГБ

В этой теме нет новых непрочитанных сообщений. Частица вселенной (1-3 серии из 7) (Алена Званцова) [2017, драма, HDTVRip 720p]

0 | 0

4.64 ГБ

В этой теме нет новых непрочитанных сообщений. Частица вселенной (1- серии из 8) (Алена Званцова) [2017, драма, HDTVRip 720p]

10 | 0

2.02 ГБ




Вы не можете начинать темы
Вы не можете отвечать на сообщения
Вы не можете редактировать свои сообщения
Вы не можете удалять свои сообщения
Вы не можете добавлять вложения

Перейти:  
 Вход
ppkBB3cker v.2 © 2008-2014 @ PPK
[ Time : 0.043s | 19 Queries | GZIP : Off ]

cron