img image001 image001 image001 image001 image001 image001 image001 image001 image001 image001 image001 image001 image001 image001 image001 image001

Planets Sun Sun Sun
Статистика раздачи
Автор: Снежана | Размер: 6.7 ГБ | Добавлен: 13 апр 2018
Раздают: 20    Качают: 3
Скачать торрент
Скачать торрент
Описание торрента

СообщениеДобавлено: 13 апр 2018 

Еще не вечер (1-12 серии из 12)

Перевод: Не требуется, cубтитры: отсутствуют
Формат: WEBRip-AVC, MKV, H.264, AC3
Страна: Россия
Режиссер: Николай Борц
Жанр: детектив, криминал, экранизация
Всего серий: 12
Продолжительность: 12 x ~ 00:45:00
Год выпуска: 2009

В ролях: Александр Тараньжин, Светлана Смирнова-Марцинкевич, Алексей Анищенко, Кирилл Жандаров, Валерий Полетаев, Юрий Филиппов (II), Андрей Бабенко, Елизавета Нилова, Юлия Нижельская, Максим Сергеев, Александр Стёпин, Александр Нестеров (III), Глеб Щур, Денис Пьянов, Сергей Бызгу, Андрей Павловец, Андрей Родимов, Евгений Баранов, Анатолий Петров, Виталий Растопчинов, Владимир Норенко, Екатерина Морачевская, Сергей Соболев, Мария Лаврова, Владислав Третьяк (II), Виталий Жарков-Галицев, Зоя Виноградова, Мария Иванова (IV), Георгий Цнобиладзе, Александр Волков (IV), Александр Сластин, Анатолий Хропов, Александр Большаков, Людмила Курепова, Андрей Гаврюшкин, Лидия Викторова, Олег Леваков, Сергей Кузнецов, Илья Савельев, Леонид Алимов, Андрей Дежонов, Ирина Патракова, Александр Марушев

Описание: По мотивам произведений Анатолия Галкина. Игорь Савенков, которого подчиненные за глаза уважительно зовут "Капитаном", возглавляет собственное сыскное агентство под названием "Сова". Точнее, даже не агентство, а небольшую контору, в которой работает всего четыре человека - он сам, два его помощника, Олег Крылов и Николай Марфин, а также секретарша Варя. Офис этой фирмы находится в довольно неожиданном месте: он располагается в нескольких комнатках старого дачного дома в одном из пригородов Петербурга. Добраться до агентства и его сотрудников, таким образом, совсем не просто, но, тем не менее, клиенты нередко прилагают существенные усилия для того, чтобы найти Савенкова и его помощников, ведь о сыскном бюро "Сова" слава идет по всему городу. Еще бы, ведь Савенков в свое время был одним из наиболее успешных оперативников, занимавшихся самыми сложными делами, и после выхода на пенсию он не растерял квалификацию, более того, бывшие коллеги нередко обращаются к нему за помощью и советом.

Рейтинг и доп. информация:


Видео: 720x400, (16:9), 25 fps, AVC MPEG-4 (x264), High@L3 ~ 1600 kbps , 0.222 bit/pixel
Аудио: 48 kHz, АС3, 2/0 (L,R), ~192.00 kbps avg
Общее
Уникальный идентификатор : 179270490944729830234387593078322585940 (0x86DE3D9C41D79F36AF0579FA2BF96154)
Полное имя : C:\Ещё не вечер\Ещё не вечер (01 сер.).mkv
Формат : Matroska
Версия формата : Version 2
Размер файла : 580 Мбайт
Продолжительность : 45 м. 11 с.
Общий поток : 1794 Кбит/сек
Дата кодирования : UTC 2018-04-04 16:59:49
Программа кодирования : mkvmerge v7.8.0 ('River Man') 32bit built on Apr 3 2015 12:11:22
Библиотека кодирования : libebml v1.3.1 + libmatroska v1.4.2

Видео
Идентификатор : 1
Формат : AVC
Формат/Информация : Advanced Video Codec
Профиль формата : High@L3
Настройки формата : CABAC / 6 Ref Frames
Параметр CABAC формата : Да
Параметр RefFrames формата : 6 кадров
Идентификатор кодека : V_MPEG4/ISO/AVC
Продолжительность : 45 м. 11 с.
Битрейт : 1600 Кбит/сек
Ширина : 720 пикселей
Высота : 400 пикселей
Соотношение сторон : 16:9
Режим частоты кадров : Постоянный
Частота кадров : 25,000 кадров/сек
Цветовое пространство : YUV
Субдискретизация насыщенности : 4:2:0
Битовая глубина : 8 бит
Тип развёртки : Прогрессивная
Бит/(Пиксели*Кадры) : 0.222
Размер потока : 506 Мбайт (87%)
Библиотека кодирования : x264 core 152 r2851 ba24899
Настройки программы : cabac=1 / ref=6 / deblock=1:0:0 / analyse=0x3:0x113 / me=umh / subme=8 / psy=1 / psy_rd=1.00:0.00 / mixed_ref=1 / me_range=24 / chroma_me=1 / trellis=1 / 8x8dct=1 / cqm=0 / deadzone=21,11 / fast_pskip=1 / chroma_qp_offset=-2 / threads=8 / lookahead_threads=1 / sliced_threads=0 / nr=0 / decimate=1 / interlaced=0 / bluray_compat=0 / stitchable=1 / constrained_intra=0 / bframes=6 / b_pyramid=2 / b_adapt=1 / b_bias=0 / direct=3 / weightb=1 / open_gop=0 / weightp=2 / keyint=250 / keyint_min=25 / scenecut=40 / intra_refresh=0 / rc_lookahead=40 / rc=2pass / mbtree=1 / bitrate=1600 / ratetol=1.0 / qcomp=0.60 / qpmin=0 / qpmax=69 / qpstep=4 / cplxblur=20.0 / qblur=0.5 / ip_ratio=1.40 / aq=1:1.00
Default : Да
Forced : Нет

Аудио
Идентификатор : 2
Формат : AC-3
Формат/Информация : Audio Coding 3
Идентификатор кодека : A_AC3
Продолжительность : 45 м. 11 с.
Вид битрейта : Постоянный
Битрейт : 192 Кбит/сек
Каналы : 2 канала
Расположение каналов : Front: L R
Частота : 48,0 КГц
Частота кадров : 31,250 кадров/сек (1536 SPF)
Битовая глубина : 16 бит
Метод сжатия : С потерями
Размер потока : 62,1 Мбайт (11%)
ServiceKind/String : Complete Main
Default : Да
Forced : Нет










   Похожие торренты   Торрент   Размер 
В этой теме нет новых непрочитанных сообщений. Наркотрафик (1-24 серии из 24) (Николай Борц, Наталия Бучнева, Андрей Балашов) [2011, криминал, HDTVRip]

18 | 2

13.01 ГБ

В этой теме нет новых непрочитанных сообщений. Эра Стрельца (1-3 сезон 1-36 серии из 36) (Максим Кубринский) [2007-2008, драма, криминал, детектив, экранизация, WEBRip-AVC]

19 | 2

20.07 ГБ

В этой теме нет новых непрочитанных сообщений. Прaвo нa прaвду (1-16 серии из 32) (Дмитрий Назиров, Николай Барышников) [2012, криминал, детектив, HDTVRip]

2 | 0

9.57 ГБ

В этой теме нет новых непрочитанных сообщений. Прaвo нa прaвду (1-32 серии из 32) (Дмитрий Назиров, Николай Барышников) [2012, криминал, детектив, HDTVRip]

29 | 0

19.15 ГБ

В этой теме нет новых непрочитанных сообщений. Любовь по приказу (1-8 серии из 8) (Николай Борц) [2016, мелодрама, HDTVRip]

118 | 12

5.6 ГБ

В этой теме нет новых непрочитанных сообщений. Любовь по приказу (1-4 серии из 8) / (Николай Борц) [2016, мелодрама, HDTVRip-AVC]

29 | 8

3.01 ГБ

В этой теме нет новых непрочитанных сообщений. Любовь по приказу (1-4 серии из 8) (Николай Борц) [2016, мелодрама, WEB-DLRip]

35 | 17

2.38 ГБ




Вы не можете начинать темы
Вы не можете отвечать на сообщения
Вы не можете редактировать свои сообщения
Вы не можете удалять свои сообщения
Вы не можете добавлять вложения

Перейти:  
 Вход
ppkBB3cker v.2 © 2008-2014 @ PPK
[ Time : 0.054s | 17 Queries | GZIP : Off ]

cron