img image001 image001 image001 image001 image001 image001 image001 image001 image001 image001 image001 image001 image001 image001 image001 image001
Planets Sun Sun Sun
Статистика раздачи
Автор: Снежана | Размер: 7.42 ГБ | Добавлен: 13 апр 2018
Раздают: 85    Качают: 1
Скачать торрент
Скачать торрент
Описание торрента

СообщениеДобавлено: 13 апр 2018 

Дети белой богини (1-12 серии из 12)

Перевод: Не требуется, cубтитры: отсутствуют
Формат: WEBRip-AVC, MKV, H.264, AC3
Страна: Россия
Режиссер: Александр Павловский
Жанр: детектив
Всего серий: 12
Продолжительность: 12 x ~ 00:50:00
Год выпуска: 2008

В ролях: Евгений Атарик, Кирилл Гребенщиков, Георгий Тесля-Герасимов, Руслан Спояло, Максим Виноградов, Екатерина Конисевич, Ольга Демичева, Ольга Иволгина, Лаврентий Светличный, Евгения Бордзиловская, Елена Кочеткова, Ирина Савицкова, Юрий Дуванов, Александр Давыдов (V), Александр Никифоров, Олег Васильков, Елена Гольянова, Тимофей Каратаев, Екатерина Соколова (III), Станислав Мотырев, Игорь Серебряный, Сергей Холмогоров, Наталья Худякова, Анна Пыченкова, Сергей Моложаев, Екатерина Чебышева, Елена Влади (II), Игорь Иванов (XIII), Наталья Кожевникова

Описание: Действие происходит в небольшом русском городке. Именно там, в месте, где, казалось бы, все и всё про всех знают – одно за другим происходят невероятно жестокие убийства. Очень быстро становится ясно, что они связаны между собой.
В центре расследования три героя, три друга детства: талантливейший сыскарь – Александр Завьялов, зампрокурора – красавец Герман Горанин и только что вышедший из тюрьмы неудачник – Петр Забелин. Помимо напряженного сюжета, в этом детективе есть и отлично придуманные – словно взятые из жизни – герои, и, остроумные, яркие сюжетные повороты, а главное – невероятный, непредсказуемый финал.


Рейтинг и доп. информация:


Видео: 720x400, (16:9), 25 fps, AVC MPEG-4 (x264), High@L3 ~ 1600 kbps , 0.222 bit/pixel
Аудио: 48 kHz, АС3, 2/0 (L,R), ~192.00 kbps avg
Общее
Уникальный идентификатор : 171832591996132220467337444667284835298 (0x8145C0E118BF216D8C9E6F6025C8CBE2)
Полное имя : C:\Дети белой богини\Дети белой богини (11 сер.).mkv
Формат : Matroska
Версия формата : Version 2
Размер файла : 635 Мбайт
Продолжительность : 49 м. 30 с.
Общий поток : 1794 Кбит/сек
Дата кодирования : UTC 2018-03-28 12:07:25
Программа кодирования : mkvmerge v7.8.0 ('River Man') 32bit built on Apr 3 2015 12:11:22
Библиотека кодирования : libebml v1.3.1 + libmatroska v1.4.2

Видео
Идентификатор : 1
Формат : AVC
Формат/Информация : Advanced Video Codec
Профиль формата : High@L3
Настройки формата : CABAC / 6 Ref Frames
Параметр CABAC формата : Да
Параметр RefFrames формата : 6 кадров
Идентификатор кодека : V_MPEG4/ISO/AVC
Продолжительность : 49 м. 30 с.
Битрейт : 1600 Кбит/сек
Ширина : 720 пикселей
Высота : 400 пикселей
Соотношение сторон : 16:9
Режим частоты кадров : Постоянный
Частота кадров : 25,000 кадров/сек
Цветовое пространство : YUV
Субдискретизация насыщенности : 4:2:0
Битовая глубина : 8 бит
Тип развёртки : Прогрессивная
Бит/(Пиксели*Кадры) : 0.222
Размер потока : 555 Мбайт (87%)
Библиотека кодирования : x264 core 152 r2851 ba24899
Настройки программы : cabac=1 / ref=6 / deblock=1:0:0 / analyse=0x3:0x113 / me=umh / subme=8 / psy=1 / psy_rd=1.00:0.00 / mixed_ref=1 / me_range=24 / chroma_me=1 / trellis=1 / 8x8dct=1 / cqm=0 / deadzone=21,11 / fast_pskip=1 / chroma_qp_offset=-2 / threads=8 / lookahead_threads=1 / sliced_threads=0 / nr=0 / decimate=1 / interlaced=0 / bluray_compat=0 / stitchable=1 / constrained_intra=0 / bframes=6 / b_pyramid=2 / b_adapt=1 / b_bias=0 / direct=3 / weightb=1 / open_gop=0 / weightp=2 / keyint=250 / keyint_min=25 / scenecut=40 / intra_refresh=0 / rc_lookahead=40 / rc=2pass / mbtree=1 / bitrate=1600 / ratetol=1.0 / qcomp=0.60 / qpmin=0 / qpmax=69 / qpstep=4 / cplxblur=20.0 / qblur=0.5 / ip_ratio=1.40 / aq=1:1.00
Default : Да
Forced : Нет

Аудио
Идентификатор : 2
Формат : AC-3
Формат/Информация : Audio Coding 3
Идентификатор кодека : A_AC3
Продолжительность : 49 м. 30 с.
Вид битрейта : Постоянный
Битрейт : 192 Кбит/сек
Каналы : 2 канала
Расположение каналов : Front: L R
Частота : 48,0 КГц
Частота кадров : 31,250 кадров/сек (1536 SPF)
Битовая глубина : 16 бит
Метод сжатия : С потерями
Размер потока : 68,0 Мбайт (11%)
ServiceKind/String : Complete Main
Default : Да
Forced : Нет










   Похожие торренты   Торрент   Размер 
В этой теме нет новых непрочитанных сообщений. Дети белой богини [01-12 из 12] (2009) 4х DVD5

0 | 2

17.15 ГБ

В этой теме нет новых непрочитанных сообщений. Дети белой богини [01-12 из 12] (2009) DVDRip

19 | 4

5.86 ГБ

В этой теме нет новых непрочитанных сообщений. Сокровища белой богини / El tesoro de la diosa blanca (1983) DVDRip от Generalfilm

23 | 18

1.37 ГБ

В этой теме нет новых непрочитанных сообщений. Инспектор Купер (3 сезон 1-16 серии из 20) Невидимый враг (Сергей Артимович, Александра Бутько, Александр Картохин) [2017, приключения, детектив, криминал, WEBRip 1080p]

0 | 0

33.98 ГБ

В этой теме нет новых непрочитанных сообщений. Инспектор Купер (3 сезон 1-12 серии из 20) Невидимый враг (Сергей Артимович, Александра Бутько, Александр Картохин) [2017, приключения, детектив, криминал, WEBRip 1080p]

7 | 0

25.67 ГБ

В этой теме нет новых непрочитанных сообщений. Инспектор Купер (3 сезон 1-20 серии из 20) Невидимый враг (Сергей Артимович, Александра Бутько, Александр Картохин) [2017, приключения, детектив, криминал, WEBRip 1080p]

4 | 0

42.41 ГБ

В этой теме нет новых непрочитанных сообщений. Инспектор Купер (3 сезон 1-18 серии из 20) Невидимый враг (Сергей Артимович, Александра Бутько, Александр Картохин) [2017, приключения, детектив, криминал, WEBRip 1080p]

0 | 2

38.26 ГБ




Вы не можете начинать темы
Вы не можете отвечать на сообщения
Вы не можете редактировать свои сообщения
Вы не можете удалять свои сообщения
Вы не можете добавлять вложения

Перейти:  
 Вход
ppkBB3cker v.2 © 2008-2014 @ PPK
[ Time : 0.049s | 17 Queries | GZIP : Off ]

cron