img image001 image001 image001 image001 image001 image001 image001 image001 image001 image001 image001 image001 image001 image001 image001 image001

Planets Sun Sun Sun
Статистика раздачи
Автор: Снежана | Размер: 24.31 ГБ | Добавлен: 13 апр 2018
Раздают: 3    Качают: 0
Скачать торрент
Скачать торрент
Описание торрента

СообщениеДобавлено: 13 апр 2018 

Живой (1-16 серии из 16)


Перевод: Не требуется
Субтитры: отсутствуют
Формат: WEBRip 720p, MKV, H.264, AC3
Страна: Россия, Киностудия КИТ
Режиссер: Михаил Кабанов
Жанр: детектив
Всего серий: 16
Продолжительность: 16 х ~ 00:44:00
Год выпуска: 2017

В ролях: Кирилл Кяро,Агата Муцениеце,Маруся Зыкова,Диана Пожарская,Александр Хошабаев,Александр Робак,Павел Прилучный,Николай Козак,Мария Свирид,Петар Зекавица.

Описание: История разворачивается вокруг журналиста популярного интернет-издания Олега Сорокина (Кирилл Кяро), который нападает на след могущественного синдиката, промышляющего убийствами самых богатых людей страны и присваивающего их состояние. Но проблема в том, что никто в его «теорию заговоров» не верит. Вычислив очередную жертву - банкира Лядова, Олег пытается предупредить его о грозящей опасности, но тщетно. Лядова взрывают в собственной машине. Олег продолжает расследование с удвоенной силой и убеждается, что в смерти банкира все очень неоднозначно. А вскоре и сам журналист становится мишенью таинственной преступной организации.



Видео: 1280x536p (2,40:1), 25.000 fps, AVC, (Н.264) ~ 4300 kbps avg, ~0.251 bit/pixel
Аудио: 48 kHz, AC3 Dolby Digital, 2/0 (L,R) ch, ~ 192 kbps avg


Общее
Уникальный идентификатор : 214615292969131895550116258958809616154 (0xA17566E4930E03D29C9C6561B305CF1A)
Полное имя : D:\КАДИРОВКА\zhivoj_e01.mkv
Формат : Matroska
Версия формата : Version 2
Размер файла : 1,39 Гбайт
Продолжительность : 44 м. 35 с.
Общий поток : 4456 Кбит/сек
Дата кодирования : UTC 2018-04-05 12:05:10
Программа кодирования : mkvmerge v7.8.0 ('River Man') 32bit built on Apr 3 2015 12:11:22
Библиотека кодирования : libebml v1.3.1 + libmatroska v1.4.2

Видео
Идентификатор : 1
Формат : AVC
Формат/Информация : Advanced Video Codec
Профиль формата :
Параметр CABAC формата : Да
Параметр ReFrames формата : 4 кадра
Идентификатор кодека : V_MPEG4/ISO/AVC
Продолжительность : 44 м. 35 с.
Битрейт : 4300 Кбит/сек
Ширина : 1280 пикселей
Высота : 536 пикселей
Соотношение сторон : 2,40:1
Режим частоты кадров : Постоянный
Частота кадров : 25,000 кадров/сек
Цветовое пространство : YUV
Субдискретизация насыщенности : 4:2:0
Битовая глубина : 8 бит
Тип развёртки : Прогрессивная
Бит/(Пиксели*Кадры) : 0.251
Размер потока : 1,30 Гбайт (94%)
Библиотека кодирования : x264 core 146 r2538 121396c
Настройки программы : cabac=1 / ref=4 / deblock=1:-1:-1 / analyse=0x3:0x133 / me=umh / subme=10 / psy=1 / psy_rd=1.00:0.15 / mixed_ref=1 / me_range=24 / chroma_me=1 / trellis=2 / 8x8dct=1 / cqm=0 / deadzone=21,11 / fast_pskip=0 / chroma_qp_offset=-3 / threads=12 / lookahead_threads=1 / sliced_threads=0 / nr=0 / decimate=1 / interlaced=0 / bluray_compat=0 / constrained_intra=0 / bframes=3 / b_pyramid=2 / b_adapt=2 / b_bias=0 / direct=1 / weightb=1 / open_gop=0 / weightp=2 / keyint=250 / keyint_min=25 / scenecut=40 / intra_refresh=0 / rc_lookahead=50 / rc=abr / mbtree=1 / bitrate=4300 / ratetol=1.0 / qcomp=0.69 / qpmin=0 / qpmax=69 / qpstep=4 / ip_ratio=1.40 / aq=1:1.00
Default : Да
Forced : Нет

Аудио
Идентификатор : 2
Формат : AC-3
Формат/Информация : Audio Coding 3
Расширение режима : CM (complete main)
Параметр Endianness формата : Big
Идентификатор кодека : A_AC3
Продолжительность : 44 м. 35 с.
Вид битрейта : Постоянный
Битрейт : 192 Кбит/сек
Каналы : 2 канала
Расположение каналов : Front: L R
Частота : 48,0 КГц
Частота кадров : 31,250 кадров/сек (1536 spf)
Битовая глубина : 16 бит
Метод сжатия : С потерями
Размер потока : 61,2 Мбайт (4%)
Язык : Russian
Default : Да
Forced : Да









Релиз от:

Релиз предоставлен сайтом tfile.me!!



   Похожие торренты   Торрент   Размер 
В этой теме нет новых непрочитанных сообщений. Живой (1-10 серии из 16) (Михаил Кабанов) [2017, детектив, WEBRip 720p]

4 | 0

15.22 ГБ

В этой теме нет новых непрочитанных сообщений. Живой (1-8 серии из 16) (Михаил Кабанов) [2017, детектив, WEBRip 720p]

12 | 4

12.24 ГБ

В этой теме нет новых непрочитанных сообщений. Живой (1-12 серии из 16) (Михаил Кабанов) [2017, детектив, WEBRip 720p]

0 | 2

18.25 ГБ

В этой теме нет новых непрочитанных сообщений. Живой (1-8 серии из 16) (Михаил Кабанов) [2017, детектив, WEBRip 1080р]

5 | 0

16.77 ГБ

В этой теме нет новых непрочитанных сообщений. Живой (1-14 серии из 16) (Михаил Кабанов) [2017, детектив, WEBRip 1080р]

5 | 0

29.2 ГБ

В этой теме нет новых непрочитанных сообщений. Живой (1-4 серии из 16) (Михаил Кабанов) [2017, детектив, WEBRip 1080р]

0 | 0

8.42 ГБ

В этой теме нет новых непрочитанных сообщений. Живой (1-10 серии из 16) (Михаил Кабанов) [2017, детектив, WEBRip 1080р]

0 | 4

20.89 ГБ




Вы не можете начинать темы
Вы не можете отвечать на сообщения
Вы не можете редактировать свои сообщения
Вы не можете удалять свои сообщения
Вы не можете добавлять вложения

Перейти:  
 Вход
ppkBB3cker v.2 © 2008-2014 @ PPK
[ Time : 0.035s | 15 Queries | GZIP : Off ]

cron