img image001 image001 image001 image001 image001 image001 image001 image001 image001 image001 image001 image001 image001 image001 image001 image001

Planets Sun Sun Sun
Статистика раздачи
Автор: Снежана | Размер: 293.85 МБ | Добавлен: 13 апр 2018
Раздают: 2    Качают: 0
Скачать торрент
Скачать торрент
Описание торрента

СообщениеДобавлено: 13 апр 2018 

Бродяга из Ниоткуда / Nomad of Nowhere

Перевод: Любительский (двухголосый, закадровый), [NewStation]

Субтитры: Английские, русские

Формат: WEBRip, MKV, H.264, AC3
Страна: США
Режиссер: Майлс Луна, Эдди Ривас
Жанр: Фэнтези, вестерн
Продолжительность: 3 x ~ 13:00:00
Год выпуска: 2018
В ролях: Элизабет Максуэлл, Дану Уриб, Райан Хэйвуд

Описание: Таинственный кочевник пересекает западную пустошь, но из-за цены за его жизнь, ему приходится скрываться от захватчиков и охотников за головами, которые хотят получить за него большой выкуп, так как он последнее волшебное существо в мире.

Ведётся охота за чародеем, обладающим тёмной магией, Бродягой из ниоткуда. Капитан Тот вместе со своей рыжей спутницей Скаут идут вслед за самым разыскиваемым в мире. Но, когда Скаут сталкивается с целью лицом к лицу, девушка оказывается в сложной ситуации.


Рейтинг на IMDB: http://www.imdb.com/title/tt8011944/

Видео: 1920x1080p. (16:9), 24,000 fps, AVC (х264) High@L4, ~794 Kbps, 0.016 bit/pixel
Аудио #1: Русский: 48 kHz, AC3 Dolby Digital, 2/0 (L,R) ch, 256 kbps
Аудио #2: Английский: 44 kHz, AAC, 2/0 (L,R) ch, 126 kbps





Внимание! Раздача ведётся путём добавления новых серий; при каждом добавлении создаётся новый торрент. Чтобы начать докачку новой серии, пользователям необходимо сделать следующее:
(1) остановить скачивание,
(2) удалить старый торрент у себя из клиента (старые серии удалять не надо),
(3) скачать новый торрент и запустить его у себя в клиенте вместо старого, при этом указать клиенту путь в старую папку куда и должно происходить скачивание новых серий.

Ваш клиент при этом должен произвести хеширование (проверку) старой папки (если не производит сам - помогите ему сделать это), и будет докачивать только те серии которых у вас ещё нет. Старые серии при этом не удаляются, а продолжают раздаваться!

Eсли вы уже удалили старые серии, то предотвратить повторную закачку старых серий можно, отжав галочку в соответствующих местах при запуске нового торрента. По возможности, желательно не удалять старые серии как можно дольше, чтобы релизёр не столько продолжал раздавать старые серии, а смог сконцентрироваться на новых.






General
Unique ID : 4091589120946430611197221030581343084 (0x31402EB29F3C5C33BB13C0CE475936C)
Complete name : D:\NewStation\Nomad.of.Nowhere.S01.WEBRip.1080p.NewStation\Nomad.of.Nowhere.S01E01.WEBRip.1080p.NewStation.mkv
Format : Matroska
Format version : Version 4 / Version 2
File size : 113 MiB
Duration : 13 min 23 s
Overall bit rate : 1 178 kb/s
Encoded date : UTC 2018-04-12 19:04:01
Writing application : mkvmerge v19.0.0 ('Brave Captain') 64-bit
Writing library : libebml v1.3.5 + libmatroska v1.4.8

Video
ID : 1
Format : AVC
Format/Info : Advanced Video Codec
Format profile : High@L4
Format settings : CABAC / 3 Ref Frames
Format settings, CABAC : Yes
Format settings, RefFrames : 3 frames
Codec ID : V_MPEG4/ISO/AVC
Duration : 13 min 23 s
Bit rate : 794 kb/s
Width : 1 920 pixels
Height : 1 080 pixels
Display aspect ratio : 16:9
Frame rate mode : Constant
Frame rate : 24.000 FPS
Color space : YUV
Chroma subsampling : 4:2:0
Bit depth : 8 bits
Scan type : Progressive
Bits/(Pixel*Frame) : 0.016
Stream size : 76.1 MiB (67%)
Default : Yes
Forced : No
Color range : Limited
Color primaries : BT.709
Transfer characteristics : BT.709
Matrix coefficients : BT.709

Audio #1
ID : 2
Format : AC-3
Format/Info : Audio Coding 3
Codec ID : A_AC3
Duration : 13 min 23 s
Bit rate mode : Constant
Bit rate : 256 kb/s
Channel(s) : 2 channels
Channel positions : Front: L R
Sampling rate : 48.0 kHz
Frame rate : 31.250 FPS (1536 SPF)
Bit depth : 16 bits
Compression mode : Lossy
Stream size : 24.5 MiB (22%)
Title : NewStation
Language : Russian
Service kind : Complete Main
Default : Yes
Forced : No

Audio #2
ID : 3
Format : AAC
Format/Info : Advanced Audio Codec
Format profile : LC
Codec ID : A_AAC-2
Duration : 13 min 23 s
Bit rate : 126 kb/s
Channel(s) : 2 channels
Channel positions : Front: L R
Sampling rate : 44.1 kHz
Frame rate : 43.066 FPS (1024 SPF)
Compression mode : Lossy
Stream size : 12.0 MiB (11%)
Title : Original
Default : No
Forced : No

Text #1
ID : 4
Format : UTF-8
Codec ID : S_TEXT/UTF8
Codec ID/Info : UTF-8 Plain Text
Duration : 12 min 43 s
Bit rate : 63 b/s
Count of elements : 169
Stream size : 5.89 KiB (0%)
Title : Original
Language : English
Default : No
Forced : No

Text #2
ID : 5
Format : UTF-8
Codec ID : S_TEXT/UTF8
Codec ID/Info : UTF-8 Plain Text
Duration : 12 min 22 s
Bit rate : 94 b/s
Count of elements : 152
Stream size : 8.55 KiB (0%)
Title : Team WARDEN
Language : Russian
Default : No
Forced : No



   Похожие торренты   Торрент   Размер 
В этой теме нет новых непрочитанных сообщений. Бродяга из Ниоткуда / Nomad of Nowhere 1 сезон 1-4 серия из 12 (Майлс Луна, Эдди Ривас) [2018, Фэнтези, вестерн, WEBRip 1080p] DVO+Original

2 | 0

371.09 МБ

В этой теме нет новых непрочитанных сообщений. Бродяга из Ниоткуда / Nomad of Nowhere 1 сезон 1-5 серия из 12 (Майлс Луна, Эдди Ривас) [2018, Фэнтези, вестерн, WEBRip 1080p] DVO+Original

0 | 0

435.98 МБ

В этой теме нет новых непрочитанных сообщений. Бродяга из Ниоткуда / Nomad of Nowhere 1 сезон 1-6 серия из 12 (Майлс Луна, Эдди Ривас) [2018, Фэнтези, вестерн, WEBRip 1080p] DVO+Original

5 | 1

530.22 МБ

В этой теме нет новых непрочитанных сообщений. Холодный спуск / West of Hell (Майкл Стивс) [2018, вестерн, ужасы, фэнтези, HDRip] MVO

43 | 0

1.29 ГБ

В этой теме нет новых непрочитанных сообщений. Вайнона Эрп, 2 сезон 1-8 серия из 13 / Wynonna Earp [Jaskier] (Рон Мерфи, Питер Стеббингс, Бретт Салливан) [2017, фэнтези, боевик, триллер, драма, детектив, вестерн, WEBRip, P]

12 | 20

4.3 ГБ

В этой теме нет новых непрочитанных сообщений. Вайнона Эрп, 2 сезон 1-10 серия из 13 / Wynonna Earp [Jaskier] (Рон Мерфи, Питер Стеббингс, Бретт Салливан) [2017, фэнтези, боевик, триллер, драма, детектив, вестерн, WEBRip, P]

0 | 10

5.37 ГБ

В этой теме нет новых непрочитанных сообщений. Вайнона Эрп, 2 сезон 1-3 серия из 13 / Wynonna Earp [Jaskier] (Рон Мерфи, Питер Стеббингс, Бретт Салливан) [2017, фэнтези, боевик, триллер, драма, детектив, вестерн, WEBRip, P]

10 | 11

1.61 ГБ




Вы не можете начинать темы
Вы не можете отвечать на сообщения
Вы не можете редактировать свои сообщения
Вы не можете удалять свои сообщения
Вы не можете добавлять вложения

Перейти:  
 Вход
ppkBB3cker v.2 © 2008-2014 @ PPK
[ Time : 0.303s | 18 Queries | GZIP : Off ]

cron