img image001 image001 image001 image001 image001 image001 image001 image001 image001 image001 image001 image001 image001 image001 image001 image001

Planets Sun Sun Sun
Статистика раздачи
Автор: Снежана | Размер: 3.46 ГБ | Добавлен: 19 апр 2018
Раздают: 19    Качают: 8
Скачать торрент
Скачать торрент
Описание торрента

СообщениеДобавлено: 19 апр 2018 

Ищейка (2 сезон 1-4 серии из 16)


Перевод: Не требуется
Субтитры: отсутствуют
Формат: WEB-DLRip , MKV, H.264, AC3
Страна: Россия
Режиссер: Дмитрий Брусникин
Жанр: детектив
Всего серий: 16
Продолжительность: 4 х ~ 00:51:00
Год выпуска: 2018

В ролях: Анна Банщикова, Александр Макогон, Андрей Казаков, Денис Бургазлиев, Владислав Павлов, Эдуард Чекмазов, Владимир Николенко, Дмитрий Миллер, Анатолий Гущин, Ирина Пулина, Константин Тополага, Ирина Гавра, Ирина Петрова, Кирилл Чернышенко, Сергей Сосновский, Виктория Корлякова, Юрий Межевич

Описание: Подполковника полиции Александру Ивановну Кушнир перевели из Москвы в небольшой город на берегу Чёрного моря. Постепенно ей удалось наладить отношения с сотрудниками отдела и даже с непосредственным начальником, который по иронии судьбы оказался её бывшим возлюбленным. Отчаявшись обрести личное счастье Кушнир окончательно с головой погружается в работу. И как раз в этот момент встречает человека, который, кажется, готов исполнить любое её желание. Александра слепо отдаётся новому увлечению. Но есть одна проблема: этот загадочный незнакомец - совсем не тот, за кого себя выдаёт…



Видео: 1024x576 (16:9), 25,000 fps, MPEG4 AVC (x264), ~2200 Kbps avg, 0.149 bit/pixel
Аудио: 48 kHz, AC3, 2/0 (L,R) ch, ~192.00 kbps avg


Общее
Уникальный идентификатор : 231584193619834081927080899798711201620 (0xAE397E49D23551C1ABFE3F5C8250EF54)
Полное имя : D:\КАДИРОВКА\ichejka_S02_[tfile.me]\ichejka_S02_E01.mkv
Формат : Matroska
Версия формата : Version 2
Размер файла : 881 Мбайт
Продолжительность : 51 м. 51 с.
Общий поток : 2375 Кбит/сек
Дата кодирования : UTC 2018-04-17 09:06:08
Программа кодирования : mkvmerge v4.0.0 ('The Stars were mine') сборка от Jun 6 2010 16:18:42
Библиотека кодирования : libebml v1.0.0 + libmatroska v1.0.0
Обложка : Yes
Attachments : cover.jpg

Видео
Идентификатор : 1
Формат : AVC
Формат/Информация : Advanced Video Codec
Профиль формата :
Параметр CABAC формата : Да
Параметр ReFrames формата : 6 кадров
Идентификатор кодека : V_MPEG4/ISO/AVC
Продолжительность : 51 м. 51 с.
Битрейт : 2200 Кбит/сек
Ширина : 1024 пикселя
Высота : 576 пикселей
Соотношение сторон : 16:9
Режим частоты кадров : Постоянный
Частота кадров : 25,000 кадров/сек
Цветовое пространство : YUV
Субдискретизация насыщенности : 4:2:0
Битовая глубина : 8 бит
Тип развёртки : Прогрессивная
Бит/(Пиксели*Кадры) : 0.149
Размер потока : 792 Мбайт (90%)
Библиотека кодирования : x264 core 146 r2538 121396c
Настройки программы : cabac=1 / ref=6 / deblock=1:-1:-1 / analyse=0x3:0x133 / me=umh / subme=10 / psy=1 / psy_rd=1.00:0.15 / mixed_ref=1 / me_range=24 / chroma_me=1 / trellis=2 / 8x8dct=1 / cqm=0 / deadzone=21,11 / fast_pskip=0 / chroma_qp_offset=-3 / threads=12 / lookahead_threads=1 / sliced_threads=0 / nr=0 / decimate=1 / interlaced=0 / bluray_compat=0 / constrained_intra=0 / bframes=3 / b_pyramid=2 / b_adapt=2 / b_bias=0 / direct=1 / weightb=1 / open_gop=0 / weightp=2 / keyint=250 / keyint_min=25 / scenecut=40 / intra_refresh=0 / rc_lookahead=50 / rc=abr / mbtree=1 / bitrate=2200 / ratetol=1.0 / qcomp=0.69 / qpmin=0 / qpmax=69 / qpstep=4 / ip_ratio=1.40 / aq=1:1.00
Default : Нет
Forced : Нет

Аудио
Идентификатор : 2
Формат : AC-3
Формат/Информация : Audio Coding 3
Расширение режима : CM (complete main)
Параметр Endianness формата : Big
Идентификатор кодека : A_AC3
Продолжительность : 51 м. 51 с.
Вид битрейта : Постоянный
Битрейт : 192 Кбит/сек
Каналы : 2 канала
Расположение каналов : Front: L R
Частота : 48,0 КГц
Частота кадров : 31,250 кадров/сек (1536 spf)
Битовая глубина : 16 бит
Метод сжатия : С потерями
Размер потока : 71,2 Мбайт (8%)
Default : Нет
Forced : Нет







Внимание! Раздача ведётся путём добавления новых серий. При каждом добавлении создаётся новый торрент.
Чтобы начать докачку новой серии, пользователям необходимо сделать следующее:
1. Остановить скачивание.
2. Удалить старый торрент у себя из клиента (старые серии удалять не надо).
3. Скачать новый торрент и запустить его у себя в клиенте вместо старого, при этом указать клиенту путь в старую папку куда и должно происходить скачивание новых серий. Ваш клиент при этом должен произвести хеширование (проверку) старой папки и будет докачивать только те серии, которых у вас ещё нет. Старые серии при этом не удаляются, а продолжают раздаваться! Eсли вы уже удалили старые серии, то предотвратить повторную закачку старых серий можно, отжав галочку в соответствующих местах при запуске нового торрента.



Релиз от:

Релиз предоставлен сайтом tfile.me!!



   Похожие торренты   Торрент   Размер 
В этой теме нет новых непрочитанных сообщений. Ищейка (2 сезон 1-16 серии из 16) (Дмитрий Брусникин) [2018, детектив, WEB-DLRip-AVC]

22 | 0

13.65 ГБ

В этой теме нет новых непрочитанных сообщений. Ищейка (2 сезон 1-8 серии из 16) (Дмитрий Брусникин) [2018, детектив, WEB-DLRip-AVC]

8 | 4

6.84 ГБ

В этой теме нет новых непрочитанных сообщений. Ищейка (2 сезон 1-12 серии из 16) (Дмитрий Брусникин) [2018, детектив, WEB-DLRip-AVC]

7 | 0

10.2 ГБ

В этой теме нет новых непрочитанных сообщений. Ищейка (2 сезон 1-16 серии из 16) (Дмитрий Брусникин) [2018, детектив, WEB-DLRip]

128 | 35

10.15 ГБ

В этой теме нет новых непрочитанных сообщений. Ищейка (2 сезон 1-10 серии из 16) (Дмитрий Брусникин) [2018, детектив, WEB-DLRip-AVC]

4 | 4

8.54 ГБ

В этой теме нет новых непрочитанных сообщений. Ищейка (2 сезон 1-4 серии из 16) (Дмитрий Брусникин) [2018, детектив, WEB-DLRip]

27 | 0

2.54 ГБ

В этой теме нет новых непрочитанных сообщений. Ищейка (2 сезон 1-6 серии из 16) (Дмитрий Брусникин) [2018, детектив, HDTVRip-AVC]

1 | 0

4.71 ГБ




Вы не можете начинать темы
Вы не можете отвечать на сообщения
Вы не можете редактировать свои сообщения
Вы не можете удалять свои сообщения
Вы не можете добавлять вложения

Перейти:  
 Вход
ppkBB3cker v.2 © 2008-2014 @ PPK
[ Time : 0.027s | 16 Queries | GZIP : Off ]

cron