img image001 image001 image001 image001 image001 image001 image001 image001 image001 image001 image001 image001 image001 image001 image001 image001

Planets Sun Sun Sun
Статистика раздачи
Автор: Снежана | Размер: 26.92 ГБ | Добавлен: 19 апр 2018
Раздают: 2    Качают: 4
Скачать торрент
Скачать торрент
Описание торрента

СообщениеДобавлено: 19 апр 2018 

Берёзка (1-14 серии из 16)


Перевод: Не требуется
Cубтитры: отсутствуют
Формат: WEB-DL, MKV, H.264, AC3
Страна: Россия, Кинокомпания Русское
Режиссер: Александр Баранов
Жанр: мелодрама
Всего серий: 16
Продолжительность: 14x ~ 00:52:00
Год выпуска: 2018

В ролях: Любовь Константинова,Ольга Бобкова,Алёна Коломина,Лидия Вележева,Мария Порошина,Михаил Ефремов,Алексей Серебряков,Нина Усатова,Надежда Маркина,Сергей Шакуров.

Описание: Вот уже 70 лет ансамбль «Березка» завораживает зрителей диковинным «плывущим» шагом, создающим впечатление, будто девушки стоят на месте, а сцена под ними вращается. Талантливым танцовщицам — дерзкой провинциалке Варе, амбициозной красавице из Таллинна Эдите и коренной москвичке Лене — предстоит пройти непростой путь к большой сцене, невзирая на череду взлётов и падений.


Видео: 1920x1080p (16:9), 25.000 fps, AVC, (Н.264) High@L4 ~ 5 012 Кбит/сек, ~ 0.097 bit/pixel
Аудио: 48 kHz, AC3 Dolby Digital, 2/0 (L,R) ch, ~192 kbps




Внимание! Раздача ведётся путём добавления новых серий. При каждом добавлении создаётся новый торрент.
Чтобы начать докачку новой серии, пользователям необходимо сделать следующее:
1. Остановить скачивание.
2. Удалить старый торрент у себя из клиента (старые серии удалять не надо).
3. Скачать новый торрент и запустить его у себя в клиенте вместо старого, при этом указать клиенту путь в старую папку куда и должно происходить скачивание новых серий. Ваш клиент при этом должен произвести хеширование (проверку) старой папки и будет докачивать только те серии, которых у вас ещё нет. Старые серии при этом не удаляются, а продолжают раздаваться! Eсли вы уже удалили старые серии, то предотвратить повторную закачку старых серий можно, отжав галочку в соответствующих местах при запуске нового торрента.

Общее
Уникальный идентификатор : 207510334605553890142433596892633417693 (0x9C1D096664F9CDA5712F0C5EFBD8C7DD)
Полное имя : D:\Фильмы торренты\Berezka.2018.WEB-DL.(1080p).Nikolspup\Berezka.(01.seriya.iz.16).2018.WEB-DL.(1080p).Nikolspup.mkv
Формат : Matroska
Версия формата : Version 2
Размер файла : 1,94 Гбайт
Продолжительность : 52 м. 26 с.
Общий поток : 5310 Кбит/сек
Программа кодирования : Lavf54.63.104
Библиотека кодирования : Lavf54.63.104

Видео
Идентификатор : 1
Формат : AVC
Формат/Информация : Advanced Video Codec
Профиль формата : High@L4
Настройки формата : CABAC / 4 Ref Frames
Параметр CABAC формата : Да
Параметр RefFrames формата : 4 кадра
Идентификатор кодека : V_MPEG4/ISO/AVC
Продолжительность : 52 м. 26 с.
Битрейт : 5012 Кбит/сек
Ширина : 1920 пикселей
Высота : 1080 пикселей
Соотношение сторон : 16:9
Режим частоты кадров : Постоянный
Частота кадров : 25,000 кадров/сек
Цветовое пространство : YUV
Субдискретизация насыщенности : 4:2:0
Битовая глубина : 8 бит
Тип развёртки : Прогрессивная
Бит/(Пиксели*Кадры) : 0.097
Размер потока : 1,84 Гбайт (94%)
Default : Нет
Forced : Нет

Аудио
Идентификатор : 2
Формат : AC-3
Формат/Информация : Audio Coding 3
Идентификатор кодека : A_AC3
Продолжительность : 52 м. 26 с.
Вид битрейта : Постоянный
Битрейт : 192 Кбит/сек
Каналы : 2 канала
Расположение каналов : Front: L R
Частота : 48,0 КГц
Частота кадров : 31,250 кадров/сек (1536 SPF)
Битовая глубина : 16 бит
Метод сжатия : С потерями
Размер потока : 72,0 Мбайт (4%)
Язык : Russian
ServiceKind/String : Complete Main
Default : Да
Forced : Нет





   Похожие торренты   Торрент   Размер 
В этой теме нет новых непрочитанных сообщений. Берёзка (1-16 серии из 16) (Александр Баранов) [2018, мелодрама, WEB-DL 1080p]

22 | 5

30.89 ГБ

В этой теме нет новых непрочитанных сообщений. Берёзка (1-6 серии из 16) (Александр Баранов (II)) [2018, мелодрама, WEB-DLRip]

20 | 7

3.81 ГБ

В этой теме нет новых непрочитанных сообщений. Берёзка (1-14 серии из 16) (Александр Баранов) [2018, Мелодрама, WEB-DL 720p]

2 | 8

22.73 ГБ

В этой теме нет новых непрочитанных сообщений. Берёзка (1-16 серии из 16) (Александр Баранов (II)) [2018, мелодрама, WEB-DLRip]

85 | 16

10.16 ГБ

В этой теме нет новых непрочитанных сообщений. Берёзка (1-14 серии из 16) (Александр Баранов (II)) [2018, мелодрама, WEB-DLRip-AVC]

10 | 2

9.11 ГБ

В этой теме нет новых непрочитанных сообщений. Берёзка (1-16 серии из 16) (Александр Баранов) [2018, Мелодрама, WEB-DL 720р]

15 | 6

16.08 ГБ

В этой теме нет новых непрочитанных сообщений. Берёзка (1-16 серии из 16) (Александр Баранов) [2018, Мелодрама, WEB-DL 720p]

0 | 0

26.07 ГБ




Вы не можете начинать темы
Вы не можете отвечать на сообщения
Вы не можете редактировать свои сообщения
Вы не можете удалять свои сообщения
Вы не можете добавлять вложения

Перейти:  
 Вход
ppkBB3cker v.2 © 2008-2014 @ PPK
[ Time : 0.041s | 18 Queries | GZIP : Off ]

cron