img image001 image001 image001 image001 image001 image001 image001 image001 image001 image001 image001 image001 image001 image001 image001

Planets Sun Sun Sun
Статистика раздачи
Автор: Снежана | Размер: 19.54 ГБ | Добавлен: 28 апр 2018
Раздают: 7    Качают: 8
Скачать торрент
Скачать торрент
Описание торрента

СообщениеДобавлено: 28 апр 2018 

Все схвачено / Man with a Plan

Перевод: Профессиональный (многоголосый, закадровый) IdeaFilm
Субтитры: отсутствуют
Формат: WEBRip, MKV, h.264, AC3
Страна: США
Режиссер: Джеймс Берроуз
Жанр: Комедия
Всего серий: 22
Продолжительность: 17х ~00:30:00
Год выпуска: 2017

В ролях: Мэтт ЛеБлан, Лиза Снайдер, Джессика Чаффин, Дженна Фишер, Грэйс Кауфман

Описание: Всю жизнь проведя в разъездах и рабочих командировках, Адам Бёрнс должен принять новый жизненный расклад, когда его супруга Мари, устав быть домохозяйкой и воспитательницей троих детей, возвращается на работу. Теперь Адам займёт её место. Он думает, что у него Всё схвачено и не будет проблем, однако уже в первый день новой жизни герой понимает, что трое детей – это сущий кошмар, что он ничегошеньки не знает о воспитании и что его малютки далеко не так просты и невинны, как казалось ему буквально вчера.


Рейтинг на:

Видео: 1920x1080 (16/9), 23,976 fps, AVC (х264), , ~6840 kbps avg, 0.138 bit/pixel
Аудио #1 Rus: :48 kHz, AC3 Dolby Digital, 3/2 (L,C,R,l,r) + LFE ch, ~384 kbps
Аудио #1 Eng: :48 kHz, AC3 Dolby Digital, 3/2 (L,C,R,l,r) + LFE ch, ~384 kbps

Внимание, присутствует реклама!


Внимание! Раздача ведётся путём добавления новых серий; при каждом добавлении создаётся новый торрент. Чтобы начать докачку новой серии, пользователям необходимо сделать следующее:
(1) остановить скачивание,
(2) удалить старый торрент у себя из клиента (старые серии удалять не надо),
(3) скачать новый торрент и запустить его у себя в клиенте вместо старого, при этом указать клиенту путь в старую папку куда и должно происходить скачивание новых серий.

Ваш клиент при этом должен произвести хеширование (проверку) старой папки (если не производит сам - помогите ему сделать это), и будет докачивать только те серии которых у вас ещё нет. Старые серии при этом не удаляются, а продолжают раздаваться!

Eсли вы уже удалили старые серии, то предотвратить повторную закачку старых серий можно, отжав галочку в соответствующих местах при запуске нового торрента. По возможности, желательно не удалять старые серии как можно дольше, чтобы релизёр не столько продолжал раздавать старые серии, а смог сконцентрироваться на новых.



Общее
Уникальный идентификатор : 248058475358109676127034457437673423171 (0xBA9E5316B32B486D882AAC3E0A810143)
Полное имя : I:\IDEAFILM\Man.with.a.Plan.S02.WEBRip.1080p\Man.with.a.Plan.S02E01.WEBRip.1080p-IdeaFilm.mkv
Формат : Matroska
Версия формата : Version 4 / Version 2
Размер файла : 1,17 Гбайт
Продолжительность : 22 м. 0 с.
Общий поток : 7599 Кбит/сек
Дата кодирования : UTC 2018-01-25 11:11:44
Программа кодирования : mkvmerge v12.0.0 ('Trust / Lust') 64bit
Библиотека кодирования : libebml v1.3.4 + libmatroska v1.4.5

Видео
Идентификатор : 1
Формат : AVC
Формат/Информация : Advanced Video Codec
Профиль формата :
Параметр CABAC формата : Да
Параметр ReFrames формата : 4 кадра
Идентификатор кодека : V_MPEG4/ISO/AVC
Продолжительность : 22 м. 0 с.
Битрейт : 6840 Кбит/сек
Ширина : 1920 пикселей
Высота : 1080 пикселей
Соотношение сторон : 16:9
Режим частоты кадров : Постоянный
Частота кадров : 23,976 (24000/1001) кадра/сек
Стандарт вещания : NTSC
Цветовое пространство : YUV
Субдискретизация насыщенности : 4:2:0
Битовая глубина : 8 бит
Тип развёртки : Прогрессивная
Бит/(Пиксели*Кадры) : 0.138
Размер потока : 1,05 Гбайт (90%)
Язык : English
Default : Да
Forced : Нет
Цветовой диапазон : Limited
Основные цвета : BT.709
Характеристики трансфера : BT.709
Коэффициенты матрицы : BT.709

Аудио #1
Идентификатор : 2
Формат : AC-3
Формат/Информация : Audio Coding 3
Расширение режима : CM (complete main)
Параметр Endianness формата : Big
Идентификатор кодека : A_AC3
Продолжительность : 22 м. 0 с.
Вид битрейта : Постоянный
Битрейт : 384 Кбит/сек
Каналы : 6 каналов
Расположение каналов : Front: L C R, Side: L R, LFE
Частота : 48,0 КГц
Частота кадров : 31,250 кадров/сек (1536 spf)
Метод сжатия : С потерями
Размер потока : 60,4 Мбайт (5%)
Заголовок : IdeaFilm
Язык : Russian
Default : Да
Forced : Нет

Аудио #2
Идентификатор : 3
Формат : AC-3
Формат/Информация : Audio Coding 3
Расширение режима : CM (complete main)
Параметр Endianness формата : Big
Идентификатор кодека : A_AC3
Продолжительность : 21 м. 20 с.
Вид битрейта : Постоянный
Битрейт : 384 Кбит/сек
Каналы : 6 каналов
Расположение каналов : Front: L C R, Side: L R, LFE
Частота : 48,0 КГц
Частота кадров : 31,250 кадров/сек (1536 spf)
Метод сжатия : С потерями
Задержка видео : 40 с. 0 мс.
Размер потока : 58,6 Мбайт (5%)
Язык : English
Default : Нет
Forced : Нет





   Похожие торренты   Торрент   Размер 
В этой теме нет новых непрочитанных сообщений. Все схвачено, 2 сезон 1-17 серия из 22 / Man with a Plan [IdeaFilm] (Джеймс Берроуз) [2017, Комедия, WEBRip, P]

1 | 0

4.87 ГБ

В этой теме нет новых непрочитанных сообщений. Все схвачено, 2 сезон 1-17 серия из 22 / Man with a Plan [IdeaFilm] (Джеймс Берроуз) [2017, Комедия, WEBRip 720p, P]

3 | 0

13.31 ГБ

В этой теме нет новых непрочитанных сообщений. Все схвачено / Man with a Plan [02x01-06 из 13] (2017) WEBRip 1080p | IdeaFilm

0 | 0

6.9 ГБ

В этой теме нет новых непрочитанных сообщений. Все схвачено / Man with a Plan [02x01-04 из 13] (2017) WEBRip 1080p | IdeaFilm

0 | 0

5.76 ГБ

В этой теме нет новых непрочитанных сообщений. Все схвачено / Man with a Plan [02x01-04 из 13] (2017) WEBRip 1080p | IdeaFilm

0 | 0

4.58 ГБ

В этой теме нет новых непрочитанных сообщений. Все схвачено / Man with a Plan [02x01-06 из 13] (2017) WEBRip | IdeaFilm

0 | 0

1.72 ГБ

В этой теме нет новых непрочитанных сообщений. Все схвачено / Man with a Plan [02x01 из 13] (2017) WEBRip | IdeaFilm

0 | 0

1.43 ГБ




Вы не можете начинать темы
Вы не можете отвечать на сообщения
Вы не можете редактировать свои сообщения
Вы не можете удалять свои сообщения
Вы не можете добавлять вложения

Перейти:  
Контактная информация: rstracker[пёсик]yandex.ru
 Вход
ppkBB3cker v.2 © 2008-2014 @ PPK
[ Time : 0.035s | 19 Queries | GZIP : Off ]

cron