img image001 image001 image001 image001 image001 image001 image001 image001 image001 image001 image001 image001 image001 image001 image001 image001

Planets Sun Sun Sun
Статистика раздачи
Автор: Снежана | Размер: 7.36 ГБ | Добавлен: 08 май 2018
Раздают: 20    Качают: 2
Скачать торрент
Скачать торрент
Описание торрента

СообщениеДобавлено: 08 май 2018 

Пепел Феникса (1-12 серии из 12)

Перевод: Не требуется, cубтитры: отсутствуют
Формат: WEBRip-AVC, MKV, H.264, AC3
Страна: Россия, Украина
Режиссер: Владимир Попков
Жанр: детектив, криминал
Всего серий: 12
Продолжительность: 12 x ~ 00:50:00
Год выпуска: 2004

В ролях: Анатолий Гущин, Леонид Кулагин, Виктор Степанов, Владимир Долинский, Эдуард Марцевич, Лариса Руснак, Олег Гущин, Василий Баша, Александр Домогаров, Елена Стефанская, Дмитрий Базай, Анатолий Ященко, Валентин Шестопалов, Дмитрий Лаленков, Владимир Ямненко, Михаил Жонин, Олег Треповский, Валерий Легин, Олег Нам, Александр Крыжановский, Сергей Марченко, Сергей Пономаренко, Андрей Чадов, Евгений Паперный, Андрей Подубинский, Пётр Бенюк, Максим Шпанский, Игорь Бочкин, Ерванд (Эрик) Арзуманян, Виктория Малекторович, Сергей Астахов, Светлана Антонова, Александр Болтовский, Владимир Зайцев, Владимир Заднепровский, Елена Захарова

Описание: Эта история началась с бандитского нападения на автофургон с грузом водки, находившийся на приграничном пропускном пункте. Бандиты искали спрятанные наркотики, а нашли человека, намеревавшегося нелегально пересечь границу в тайнике машины. И лучше бы не находили, ибо потом им пришлось не один раз пожалеть об этом.

Рейтинг и доп. информация:


Видео: 720x540, (4:3), 25 fps, AVC MPEG-4 (x264), ~ 1600 kbps , 0.165 bit/pixel
Аудио: 48 kHz, АС3, 2/0 (L,R), ~192.00 kbps avg
Общее
Уникальный идентификатор : 219207671782395831351361294013918384374 (0xA4E9DCA64C653940AF4C5E15D59090F6)
Полное имя : C:\Пепел Феникса\Пепел Феникса (01 сер.).mkv
Формат : Matroska
Версия формата : Version 2
Размер файла : 627 Мбайт
Продолжительность : 48 м. 54 с.
Общий поток : 1793 Кбит/сек
Дата кодирования : UTC 2018-04-07 05:08:01
Программа кодирования : mkvmerge v7.8.0 ('River Man') 32bit built on Apr 3 2015 12:11:22
Библиотека кодирования : libebml v1.3.1 + libmatroska v1.4.2

Видео
Идентификатор : 1
Формат : AVC
Формат/Информация : Advanced Video Codec
Профиль формата :
Настройки формата : CABAC / 6 Ref Frames
Параметр CABAC формата : Да
Параметр RefFrames формата : 6 кадров
Идентификатор кодека : V_MPEG4/ISO/AVC
Продолжительность : 48 м. 54 с.
Битрейт : 1600 Кбит/сек
Ширина : 720 пикселей
Высота : 540 пикселей
Соотношение сторон : 4:3
Режим частоты кадров : Постоянный
Частота кадров : 25,000 кадров/сек
Цветовое пространство : YUV
Субдискретизация насыщенности : 4:2:0
Битовая глубина : 8 бит
Тип развёртки : Прогрессивная
Бит/(Пиксели*Кадры) : 0.165
Размер потока : 560 Мбайт (89%)
Библиотека кодирования : x264 core 152 r2851 ba24899
Настройки программы : cabac=1 / ref=6 / deblock=1:0:0 / analyse=0x3:0x113 / me=umh / subme=8 / psy=1 / psy_rd=1.00:0.00 / mixed_ref=1 / me_range=24 / chroma_me=1 / trellis=1 / 8x8dct=1 / cqm=0 / deadzone=21,11 / fast_pskip=1 / chroma_qp_offset=-2 / threads=8 / lookahead_threads=1 / sliced_threads=0 / nr=0 / decimate=1 / interlaced=0 / bluray_compat=0 / stitchable=1 / constrained_intra=0 / bframes=6 / b_pyramid=2 / b_adapt=1 / b_bias=0 / direct=3 / weightb=1 / open_gop=0 / weightp=2 / keyint=250 / keyint_min=25 / scenecut=40 / intra_refresh=0 / rc_lookahead=40 / rc=2pass / mbtree=1 / bitrate=1600 / ratetol=1.0 / qcomp=0.60 / qpmin=0 / qpmax=69 / qpstep=4 / cplxblur=20.0 / qblur=0.5 / ip_ratio=1.40 / aq=1:1.00
Default : Да
Forced : Нет

Аудио
Идентификатор : 2
Формат : AC-3
Формат/Информация : Audio Coding 3
Идентификатор кодека : A_AC3
Продолжительность : 48 м. 54 с.
Вид битрейта : Постоянный
Битрейт : 192 Кбит/сек
Каналы : 2 канала
Расположение каналов : Front: L R
Частота : 48,0 КГц
Частота кадров : 31,250 кадров/сек (1536 SPF)
Битовая глубина : 16 бит
Метод сжатия : С потерями
Размер потока : 67,2 Мбайт (11%)
ServiceKind/String : Complete Main
Default : Да
Forced : Нет










   Похожие торренты   Торрент   Размер 
В этой теме нет новых непрочитанных сообщений. Персона нон грата (1-12 серии из 12) (Владимир Нахабцев мл.) [2005, детектив, криминал, WEBRip-AVC]

3 | 0

6.63 ГБ

В этой теме нет новых непрочитанных сообщений. Балабол (2 сезон 1-2 серии из 16) (Владимир Мельник) [2018, детектив, комедия, криминал, WEBRip]

15 | 0

1.19 ГБ

В этой теме нет новых непрочитанных сообщений. Балабол (2 сезон 1-10 серии из 16) (Владимир Мельник) [2018, детектив, комедия, криминал, WEBRip]

28 | 29

5.89 ГБ

В этой теме нет новых непрочитанных сообщений. Балабол (2 сезон 1-8 серии из 16) (Владимир Мельник) [2018, детектив, комедия, криминал, WEBRip]

202 | 76

4.76 ГБ

В этой теме нет новых непрочитанных сообщений. Балабол (2 сезон 1-4 серии из 16) (Владимир Мельник) [2018, детектив, комедия, криминал, WEBRip]

11 | 2

2.4 ГБ

В этой теме нет новых непрочитанных сообщений. Балабол (2 сезон 1-6 серии из 16) (Владимир Мельник) [2018, детектив, комедия, криминал, WEBRip]

20 | 6

3.59 ГБ

В этой теме нет новых непрочитанных сообщений. Балабол (2 сезон 1-14 серии из 16) (Владимир Мельник) [2018, детектив, комедия, криминал, WEBRip-AVC]

25 | 32

10.67 ГБ




Вы не можете начинать темы
Вы не можете отвечать на сообщения
Вы не можете редактировать свои сообщения
Вы не можете удалять свои сообщения
Вы не можете добавлять вложения

Перейти:  
 Вход
ppkBB3cker v.2 © 2008-2014 @ PPK
[ Time : 0.036s | 16 Queries | GZIP : Off ]

cron