img image001 image001 image001 image001 image001 image001 image001 image001 image001 image001 image001 image001 image001 image001 image001 image001

Planets Sun Sun Sun
Статистика раздачи
Автор: Снежана | Размер: 9.35 ГБ | Добавлен: 08 май 2018
Раздают: 9    Качают: 2
Скачать торрент
Скачать торрент
Описание торрента

СообщениеДобавлено: 08 май 2018 

Спецгруппа (1-16 серии из 16)

Перевод: Не требуется, cубтитры: отсутствуют
Формат: WEBRip-AVC, MKV, H.264, AC3
Страна: Россия
Режиссер: Максим Мокрушев, Сергей Мокрицкий, Владимир Нахабцев (младший), Василий Сериков, Дмитрий Дьяченко, Роман Романовский
Жанр: детектив, криминал
Всего серий: 16
Продолжительность: 16 x ~ 00:47:00
Год выпуска: 2007

В ролях: Александр Цуркан, Сергей Жарков, Елена Гольянова, Юрий Осипов, Владислав Резник, Константин Кожевников, Олег Казанчеев, Игорь Скурихин, Лариса Некипелова, Анна Тришкина, Наталья Буслакова, Ксения Виват, Александр Козлов, Игорь Ветров (II), Раиса Конюхова, Александр Маркелов, Ульяна Похлебаева, Олег Кныш, Михаил Богдасаров, Станислав Лесной, Лика Рулла, Павел Климов, Игорь Поляков, Елена Габец, Игорь Шурупов, Борис Хан, Артем Хряков, Валентина Малявина (II), Татьяна Бронзова, Ирина Ахматенко, Вячеслав Крючков, Владимир Харабров, Владимир Кардонов, Петр Абрамов, Александр Дьяченко, Сергей Внуков, Виктор Запорожский, Константин Спасский, Владимир Майсурадзе, Роман Стабуров, Михаил Георгиу, Григорий Каганович, Наз Салим, Ахмед Надим, Виктор Проскурин, Александр Рапопорт, Мухтар Гусенгаджиев, Игорь Лысов, Рамис Ибрагимов, Сослан Фидаров, Ильхам Ханбудагов, Дана Гарина, Ален Мевету, Ольга Щанкина, Сергей Дергалев, Климентий Плохотнюк, Магомед Зурабов, Николай Юшкевич, Юрий Филатов, Евгений Кудрявцев, Иван Нахабцев, Алексей Шмаринов, Александра Конникова, Игорь Жуковский, Александр Фастовский, Алексей Гущин, Рафаэль Мукаев, Константин Глушков, Василий Белокопытов, Андрей Самарин

Описание: Среди важнейших направлений деятельности ФСБ можно назвать контрразведку, борьбу с терроризмом, политическим и религиозным экстремизмом, расследование наиболее крупных афер в экономической сфере, охрану границ и борьбу с наркотрафиком.Именно такими делами и занимаются герои сериала "Спецгруппа". Сериал создавался в тесном сотрудничестве с ФСБ, что придает действиям героев максимальную достоверность. Многие сюжеты почерпнуты из реальных операций, проведенных ФСБ.

Рейтинг и доп. информация:


Видео: 720x496, 720x528, (3:2), 25 fps, AVC MPEG-4 (x264), ~ 1600 kbps , 0.179 bit/pixel
Аудио: 48 kHz, АС3, 2/0 (L,R), ~192.00 kbps avg
Общее
Уникальный идентификатор : 176697561493425873980854282635816421809 (0x84EEB664F5F64A3DB85CC864410F49B1)
Полное имя : C:\Спецгруппа\Спецгруппа (01 сер.).mkv
Формат : Matroska
Версия формата : Version 2
Размер файла : 610 Мбайт
Продолжительность : 47 м. 30 с.
Общий поток : 1794 Кбит/сек
Дата кодирования : UTC 2018-04-11 14:50:52
Программа кодирования : mkvmerge v7.8.0 ('River Man') 32bit built on Apr 3 2015 12:11:22
Библиотека кодирования : libebml v1.3.1 + libmatroska v1.4.2

Видео
Идентификатор : 1
Формат : AVC
Формат/Информация : Advanced Video Codec
Профиль формата :
Настройки формата : CABAC / 6 Ref Frames
Параметр CABAC формата : Да
Параметр RefFrames формата : 6 кадров
Идентификатор кодека : V_MPEG4/ISO/AVC
Продолжительность : 47 м. 30 с.
Битрейт : 1600 Кбит/сек
Ширина : 720 пикселей
Высота : 496 пикселей
Соотношение сторон : 3:2
Режим частоты кадров : Постоянный
Частота кадров : 25,000 кадров/сек
Цветовое пространство : YUV
Субдискретизация насыщенности : 4:2:0
Битовая глубина : 8 бит
Тип развёртки : Прогрессивная
Бит/(Пиксели*Кадры) : 0.179
Размер потока : 544 Мбайт (89%)
Библиотека кодирования : x264 core 152 r2851 ba24899
Настройки программы : cabac=1 / ref=6 / deblock=1:0:0 / analyse=0x3:0x113 / me=umh / subme=8 / psy=1 / psy_rd=1.00:0.00 / mixed_ref=1 / me_range=24 / chroma_me=1 / trellis=1 / 8x8dct=1 / cqm=0 / deadzone=21,11 / fast_pskip=1 / chroma_qp_offset=-2 / threads=8 / lookahead_threads=1 / sliced_threads=0 / nr=0 / decimate=1 / interlaced=0 / bluray_compat=0 / stitchable=1 / constrained_intra=0 / bframes=6 / b_pyramid=2 / b_adapt=1 / b_bias=0 / direct=3 / weightb=1 / open_gop=0 / weightp=2 / keyint=250 / keyint_min=25 / scenecut=40 / intra_refresh=0 / rc_lookahead=40 / rc=2pass / mbtree=1 / bitrate=1600 / ratetol=1.0 / qcomp=0.60 / qpmin=0 / qpmax=69 / qpstep=4 / cplxblur=20.0 / qblur=0.5 / ip_ratio=1.40 / aq=1:1.00
Default : Да
Forced : Нет

Аудио
Идентификатор : 2
Формат : AC-3
Формат/Информация : Audio Coding 3
Идентификатор кодека : A_AC3
Продолжительность : 47 м. 30 с.
Вид битрейта : Постоянный
Битрейт : 192 Кбит/сек
Каналы : 2 канала
Расположение каналов : Front: L R
Частота : 48,0 КГц
Частота кадров : 31,250 кадров/сек (1536 SPF)
Битовая глубина : 16 бит
Метод сжатия : С потерями
Размер потока : 65,3 Мбайт (11%)
ServiceKind/String : Complete Main
Default : Да
Forced : Нет










   Похожие торренты   Торрент   Размер 
В этой теме нет новых непрочитанных сообщений. Персона нон грата (1-12 серии из 12) (Владимир Нахабцев мл.) [2005, детектив, криминал, WEBRip-AVC]

2 | 0

6.63 ГБ

В этой теме нет новых непрочитанных сообщений. Обратный отсчёт (1-10 серии из 16) (Сергей Попов, Дмитрий Аверин, Максим Кубринский) [2017, детектив, WEBRip]

40 | 12

5.44 ГБ

В этой теме нет новых непрочитанных сообщений. Обратный отсчёт (1-16 серии из 16) (Сергей Попов, Дмитрий Аверин, Максим Кубринский) [2017, детектив, WEBRip]

92 | 14

8.7 ГБ

В этой теме нет новых непрочитанных сообщений. Обратный отсчёт (1-12 серии из 16) (Сергей Попов, Дмитрий Аверин, Максим Кубринский) [2017, детектив, WEBRip]

3 | 8

6.52 ГБ

В этой теме нет новых непрочитанных сообщений. Обратный отсчёт (1-14 серии из 16) (Сергей Попов, Дмитрий Аверин, Максим Кубринский) [2017, детектив, WEBRip]

6 | 1

7.61 ГБ

В этой теме нет новых непрочитанных сообщений. Обратный отсчёт (1-10 серии из 16) (Сергей Попов, Дмитрий Аверин, Максим Кубринский) [2017, детектив, WEBRip 1080p]

6 | 0

20.69 ГБ

В этой теме нет новых непрочитанных сообщений. Обратный отсчёт (1-16 серии из 16) (Сергей Попов, Дмитрий Аверин, Максим Кубринский) [2017, детектив, WEBRip 720p]

3 | 0

25.06 ГБ




Вы не можете начинать темы
Вы не можете отвечать на сообщения
Вы не можете редактировать свои сообщения
Вы не можете удалять свои сообщения
Вы не можете добавлять вложения

Перейти:  
 Вход
ppkBB3cker v.2 © 2008-2014 @ PPK
[ Time : 0.029s | 17 Queries | GZIP : Off ]

cron