img image001 image001 image001 image001 image001 image001 image001 image001 image001 image001 image001 image001 image001 image001 image001 image001

Planets Sun Sun Sun
Статистика раздачи
Автор: Снежана | Размер: 2 ГБ | Добавлен: 15 май 2018
Раздают: 2    Качают: 0
Скачать торрент
Скачать торрент
Описание торрента

СообщениеДобавлено: 15 май 2018 

Путешествие к центру души (1-2 серии из 16)

Перевод: Не требуется, cубтитры: отсутствуют
Формат: WEBRip 720p, MKV, H.264, AC3
Страна: Украина
Режиссер: Дмитрий Матов
Жанр: мелодрама
Всего серий: 16
Продолжительность: 2 х ~ 00:44:55
Год выпуска: 2018

В ролях: Мария Баева, Анастасия Иванова (II), Александр Робак, Екатерина Семёнова, Андрей Аверков, Игорь Скрипко, Артём Позняк, Даниил Мирешкин, Константин Корецкий, Ольга Радчук, Алексей Агопьян, Игорь Петрусенко, Владимир Абазопуло (младший), Лариса Кадочникова, Диана Розовлян, Людмила Загорская, Сергей Деньга

Описание: Сага о судьбах двух девушек – Риты и Веры, ставших ближайшими подругами в переломный исторический момент распада СССР. История развивается на протяжении двадцати лет. Из-за любви к одному мужчине – Максиму, Рита и Вера из лучших подруг превращаются в смертельно опасных друг для друга врагов. Коварная Вера мучительно завидуя Рите мечтает прибрать к рукам не только ее любимого, но и Ритины деньги и Ритину жизнь. А Рита хочет начать все с чистого листа. И судьба дает каждой из них уникальный шанс: начать жизнь заново. Но старые обиды и грехи не позволяют Вере забыть о прошлом и перестать ненавидеть более удачливую и чистую подругу Риту.

Рейтинг и доп. информация:


Видео: 1280x720 (16:9), 25 fps, AVC MPEG-4 (x264), ~ 3000 kbps avg, 0.130 bit/pixel
Аудио: 48 kHz, AC3, 2/0 (L,R) ch, ~192 kbps
Внимание! Раздача ведётся путём добавления новых серий. При каждом добавлении создаётся новый торрент.
Чтобы начать докачку новой серии, пользователям необходимо сделать следующее:
1. Остановить скачивание.
2. Удалить старый торрент у себя из клиента (старые серии удалять не надо).
3. Скачать новый торрент и запустить его у себя в клиенте вместо старого, при этом указать клиенту путь в старую папку куда и должно происходить скачивание новых серий. Ваш клиент при этом должен произвести хеширование (проверку) старой папки и будет докачивать только те серии, которых у вас ещё нет. Старые серии при этом не удаляются, а продолжают раздаваться! Eсли вы уже удалили старые серии, то предотвратить повторную закачку старых серий можно, отжав галочку в соответствующих местах при запуске нового торрента.


Общее
Уникальный идентификатор : 106124060637953532381599420071950855622 (0x4FD6C028A63D0E4BE3E64A7C9132ADC6)
Полное имя : C:\Путешествие к центру души.2018.WEBRip (720p).by.Nicodem.Files-x\01.Путешествие к центру души.2018.WEBRip (720p).by.Nicodem.Files-x.mkv
Формат : Matroska
Версия формата : Version 4 / Version 2
Размер файла : 1,02 Гбайт
Продолжительность : 45 м. 46 с.
Режим общего битрейта : Постоянный
Общий поток : 3177 Кбит/сек
Программа кодирования : Lavf56.36.100
Библиотека кодирования : Lavf56.36.100

Видео
Идентификатор : 1
Формат : AVC
Формат/Информация : Advanced Video Codec
Профиль формата :
Настройки формата : 2 Ref Frames
Параметр CABAC формата : Нет
Параметр RefFrames формата : 2 кадра
Параметр GOP формата : M=3, N=50
Идентификатор кодека : V_MPEG4/ISO/AVC
Продолжительность : 45 м. 46 с.
Вид битрейта : Постоянный
Битрейт : 3000 Кбит/сек
Ширина : 1280 пикселей
Высота : 720 пикселей
Соотношение сторон : 16:9
Режим частоты кадров : Постоянный
Частота кадров : 25,000 кадров/сек
Стандарт вещания : PAL
Цветовое пространство : YUV
Субдискретизация насыщенности : 4:2:0
Битовая глубина : 8 бит
Тип развёртки : Прогрессивная
Бит/(Пиксели*Кадры) : 0.130
Размер потока : 956 Мбайт (92%)
Default : Да
Forced : Нет
Цветовой диапазон : Limited
Основные цвета : BT.709
Характеристики трансфера : BT.709
Коэффициенты матрицы : BT.709

Аудио
Идентификатор : 2
Формат : AC-3
Формат/Информация : Audio Coding 3
Идентификатор кодека : A_AC3
Продолжительность : 45 м. 46 с.
Вид битрейта : Постоянный
Битрейт : 192 Кбит/сек
Каналы : 2 канала
Расположение каналов : Front: L R
Частота : 48,0 КГц
Частота кадров : 31,250 кадров/сек (1536 SPF)
Битовая глубина : 16 бит
Метод сжатия : С потерями
Задержка видео : -40 мс.
Размер потока : 62,9 Мбайт (6%)
Язык : unknown
ServiceKind/String : Complete Main
Default : Да
Forced : Нет








   Похожие торренты   Торрент   Размер 
В этой теме нет новых непрочитанных сообщений. Путешествие к центру души (1-4 серии из 16) (Дмитрий Матов) [2018, мелодрама, WEBRip 720p]

2 | 0

4 ГБ

В этой теме нет новых непрочитанных сообщений. Путешествие к центру души (1-2 серии из 16) (Дмитрий Матов) [2018, мелодрама, WEBRip-AVC]

7 | 0

1.13 ГБ

В этой теме нет новых непрочитанных сообщений. Путешествие к центру души (1-2 серии из 16) (Дмитрий Матов) [2018, мелодрама, WEBRip]

2 | 0

1.17 ГБ

В этой теме нет новых непрочитанных сообщений. Путешествие к центру души (1-4 серии из 16) (Дмитрий Матов) [2018, мелодрама, WEBRip-AVC]

4 | 0

2.26 ГБ

В этой теме нет новых непрочитанных сообщений. Путешествие к центру души (1-8 серии из 16) (Дмитрий Матов) [2018, мелодрама, WEBRip-AVC]

10 | 0

4.5 ГБ

В этой теме нет новых непрочитанных сообщений. Путешествие к центру души (1-6 серии из 16) (Дмитрий Матов) [2018, мелодрама, WEBRip-AVC]

7 | 4

3.38 ГБ

В этой теме нет новых непрочитанных сообщений. Путешествие к центру души (1-8 серии из 16) (Дмитрий Матов) [2018, мелодрама, WEB-DL 720p]

1 | 0

6.74 ГБ




Вы не можете начинать темы
Вы не можете отвечать на сообщения
Вы не можете редактировать свои сообщения
Вы не можете удалять свои сообщения
Вы не можете добавлять вложения

Перейти:  
 Вход
ppkBB3cker v.2 © 2008-2014 @ PPK
[ Time : 0.047s | 16 Queries | GZIP : Off ]

cron