img image001 image001 image001 image001 image001 image001 image001 image001 image001 image001 image001 image001 image001 image001 image001 image001

Planets Sun Sun Sun
Статистика раздачи
Автор: Снежана | Размер: 2.52 ГБ | Добавлен: 16 май 2018
Раздают: 21    Качают: 5
Скачать торрент
Скачать торрент
Описание торрента

СообщениеДобавлено: 16 май 2018 

Bocтoк-Запад / Восточные сладости (2 сезон 1-4 серии из 24)

Перевод: Не требуется, cубтитры: отсутствуют
Формат: WEB-DLRip-AVC, MKV, H.264, AC3
Страна: Россия, Турция, Украина
Режиссер: Денис Елеонский
Жанр: мелодрама
Всего серий: 24
Продолжительность: 4 x ~ 00:50:00
Год выпуска: 2018

В ролях: Евгения Лоза, Аднан Коч, Яков Кучеревский, Шенай Ба, Анна Варпаховская, Ольга Лукьяненко, Уйур Хакан Гюнери, Энгиз Озсайын, Алие Узунатаган, Дарья Южад, Наталья Кленина, Богдан Юсипчук, Полина Василина, Тимур Ибраимов, Алексан Четинкая, Ахтем Сейтаблаев, Хусейин Дилбер, Эркам Айдар, Мария Тарасова (II), Роман Выскребенцев

Описание: Продолжение сериала "Восточные сладости / Восток-Запад". Найдет ли Татьяна счастье в Турции или вернется на Родину? Кто отец её ребенка? Что делать со своей жизнью, когда она стремительно рушится?..

Рейтинг и доп. информация:


Видео: 1024x576 (16:9), 25 fps, AVC MPEG-4 (x264), ~ 1600 kbps , 0.109 bit/pixel
Аудио: 44 kHz, AC3, 2/0 (L,R) ch, ~192.00 kbps avg
Внимание! Раздача ведётся путём добавления новых серий. При каждом добавлении создаётся новый торрент.
Чтобы начать докачку новой серии, пользователям необходимо сделать следующее:
1. Остановить скачивание.
2. Удалить старый торрент у себя из клиента (старые серии удалять не надо).
3. Скачать новый торрент и запустить его у себя в клиенте вместо старого, при этом указать клиенту путь в старую папку куда и должно происходить скачивание новых серий. Ваш клиент при этом должен произвести хеширование (проверку) старой папки и будет докачивать только те серии, которых у вас ещё нет. Старые серии при этом не удаляются, а продолжают раздаваться! Eсли вы уже удалили старые серии, то предотвратить повторную закачку старых серий можно, отжав галочку в соответствующих местах при запуске нового торрента.


Общее
Уникальный идентификатор : 243768416302288090845953595445274520490 (0xB76416D8C6B81ED688578A97E858ABAA)
Полное имя : C:\Восток-Запад (Восточные сладости).s02.(2018).WEB-DLRip.(AVC).Files-x\01.Восток-Запад.S02.(2018).WEB-DLRip.(AVC).by.Серый1779.Files-x.mkv
Формат : Matroska
Версия формата : Version 2
Размер файла : 667 Мбайт
Продолжительность : 52 м. 2 с.
Общий поток : 1793 Кбит/сек
Дата кодирования : UTC 2018-05-14 21:51:28
Программа кодирования : mkvmerge v7.8.0 ('River Man') 32bit built on Apr 3 2015 12:11:22
Библиотека кодирования : libebml v1.3.1 + libmatroska v1.4.2

Видео
Идентификатор : 1
Формат : AVC
Формат/Информация : Advanced Video Codec
Профиль формата :
Настройки формата : CABAC / 9 Ref Frames
Параметр CABAC формата : Да
Параметр RefFrames формата : 9 кадров
Идентификатор кодека : V_MPEG4/ISO/AVC
Продолжительность : 52 м. 2 с.
Битрейт : 1600 Кбит/сек
Ширина : 1024 пикселя
Высота : 576 пикселей
Соотношение сторон : 16:9
Режим частоты кадров : Постоянный
Частота кадров : 25,000 кадров/сек
Цветовое пространство : YUV
Субдискретизация насыщенности : 4:2:0
Битовая глубина : 8 бит
Тип развёртки : Прогрессивная
Бит/(Пиксели*Кадры) : 0.109
Размер потока : 583 Мбайт (87%)
Библиотека кодирования : x264 core 146 r2538 121396c
Настройки программы : cabac=1 / ref=9 / deblock=1:-2:-1 / analyse=0x3:0x133 / me=umh / subme=9 / psy=1 / psy_rd=1.00:0.15 / mixed_ref=1 / me_range=32 / chroma_me=1 / trellis=2 / 8x8dct=1 / cqm=0 / deadzone=21,11 / fast_pskip=0 / chroma_qp_offset=-3 / threads=18 / lookahead_threads=3 / sliced_threads=0 / nr=0 / decimate=1 / interlaced=0 / bluray_compat=0 / constrained_intra=0 / bframes=9 / b_pyramid=2 / b_adapt=2 / b_bias=0 / direct=1 / weightb=1 / open_gop=0 / weightp=2 / keyint=250 / keyint_min=25 / scenecut=40 / intra_refresh=0 / rc=2pass / mbtree=0 / bitrate=1600 / ratetol=1.0 / qcomp=0.60 / qpmin=0 / qpmax=69 / qpstep=4 / cplxblur=20.0 / qblur=0.5 / ip_ratio=1.40 / pb_ratio=1.30 / aq=2:1.00
Default : Да
Forced : Нет
Цветовой диапазон : Limited
Основные цвета : BT.709
Характеристики трансфера : BT.709
Коэффициенты матрицы : BT.709

Аудио
Идентификатор : 2
Формат : AC-3
Формат/Информация : Audio Coding 3
Идентификатор кодека : A_AC3
Продолжительность : 52 м. 2 с.
Вид битрейта : Постоянный
Битрейт : 192 Кбит/сек
Каналы : 2 канала
Расположение каналов : Front: L R
Частота : 44,1 КГц
Частота кадров : 28,711 кадров/сек (1536 SPF)
Битовая глубина : 16 бит
Метод сжатия : С потерями
Размер потока : 71,5 Мбайт (11%)
ServiceKind/String : Complete Main
Default : Да
Forced : Нет








   Похожие торренты   Торрент   Размер 
В этой теме нет новых непрочитанных сообщений. Bocтoк-Запад / Восточные сладости (2 сезон 1-10 серии из 24) (Денис Елеонский) [2018, мелодрама, WEB-DLRip-AVC]

12 | 40

6.19 ГБ

В этой теме нет новых непрочитанных сообщений. Bocтoк-Запад / Восточные сладости (2 сезон 1-8 серии из 24) (Денис Елеонский) [2018, мелодрама, WEB-DLRip-AVC]

0 | 0

4.97 ГБ

В этой теме нет новых непрочитанных сообщений. Bocтoк-Запад / Восточные сладости (2 сезон 1-16 серии из 24) (Денис Елеонский) [2018, мелодрама, WEB-DLRip-AVC]

0 | 0

9.85 ГБ

В этой теме нет новых непрочитанных сообщений. Bocтoк-Запад / Восточные сладости (2 сезон 1-16 серии из 24) (Денис Елеонский) [2018, мелодрама, WEB-DLRip]

0 | 0

9.45 ГБ

В этой теме нет новых непрочитанных сообщений. Bocтoк-Запад / Восточные сладости (2 сезон 1-10 серии из 24) (Денис Елеонский) [2018, мелодрама, WEB-DLRip]

13 | 13

5.93 ГБ

В этой теме нет новых непрочитанных сообщений. Bocтoк-Запад / Восточные сладости (2 сезон 1-2 серии из 24) (Денис Елеонский) [2018, мелодрама, WEB-DLRip-AVC]

12 | 7

1.28 ГБ

В этой теме нет новых непрочитанных сообщений. Bocтoк-Запад / Восточные сладости (2 сезон 1-6 серии из 24) (Денис Елеонский) [2018, мелодрама, WEB-DLRip-AVC]

23 | 14

3.73 ГБ




Вы не можете начинать темы
Вы не можете отвечать на сообщения
Вы не можете редактировать свои сообщения
Вы не можете удалять свои сообщения
Вы не можете добавлять вложения

Перейти:  
 Вход
ppkBB3cker v.2 © 2008-2014 @ PPK
[ Time : 0.038s | 16 Queries | GZIP : Off ]

cron