img image001 image001 image001 image001 image001 image001 image001 image001 image001 image001 image001 image001 image001 image001 image001 image001

Planets Sun Sun Sun
Статистика раздачи
Автор: Снежана | Размер: 6.59 ГБ | Добавлен: 16 май 2018
Раздают: 0    Качают: 3
Скачать торрент
Скачать торрент
Описание торрента

СообщениеДобавлено: 16 май 2018 

Алекса и Кэти / Alexa & Katie

Перевод: Профессиональный (многоголосый, закадровый) IdeaFilm
Субтитры: отсутствуют
Формат: WEBRip, MKV, h.264, AC3
Страна: США
Режиссер: Энди Кэдифф, Тревор Киршнер, Кэти Гарретсон
Жанр: Комедия
Всего серий: 13
Продолжительность: 5х ~00:25:00
Год выпуска: 2018

В ролях: Пэрис Берелс, Тиффани Тиссен, Эдди Шин, Джоли Дженкинс, Эмери Келли, Финн Карр, Мэрит Лейтон, Керри Меддерс

Описание: Дружба, важнейшая часть жизни любого человека. Друзья, приобретённые в школьные годы, чаще всего остаются ими навсегда, они для нас самые близки и дорогие люди. В центре сюжета однокамерной молодежной комедии лучшие подруги Алекса и Кейти. Девчонки повзрослели, перешли в старшую школу и с волнением ждут начала нового учебного года. Они вновь встретятся с любимыми одноклассниками, с парнями которые им нравятся и получат массу новых впечатлений. Они давно не разлей вода, и привыкли всем делиться. Правда их радость омрачает болезнь Алексы. Она борется с раком, но не собирается сдаваться! Она жизнерадостная девушка, полная уверенности в себе и оптимизма. Тем более ее подруга веселая, забавная и неугомонная Кейти всегда рядом. А вместе они способны на все. Где бы она не находились, дома, в классе или в больнице, она всегда находит время, чтобы поболтать с ней и поддержать ее. Иногда они чувствуют себя аутсайдерами, и думают, что все самое интересное проходит мимо них. Но это не повод отчаиваться, ведь они есть друг у друга.


Рейтинг на:

Видео: 1920x1080 (16/9), 23,976 fps, AVC (х264), , ~6635 kbps avg, 0.133 bit/pixel
Аудио #1 Rus: :48 kHz, AC3 Dolby Digital, 3/2 (L,C,R,l,r) + LFE ch, ~384 kbps
Аудио #1 Eng: :48 kHz, AC3 Dolby Digital, 3/2 (L,C,R,l,r) + LFE ch, ~384 kbps

Внимание, присутствует реклама!


Внимание! Раздача ведётся путём добавления новых серий; при каждом добавлении создаётся новый торрент. Чтобы начать докачку новой серии, пользователям необходимо сделать следующее:
(1) остановить скачивание,
(2) удалить старый торрент у себя из клиента (старые серии удалять не надо),
(3) скачать новый торрент и запустить его у себя в клиенте вместо старого, при этом указать клиенту путь в старую папку куда и должно происходить скачивание новых серий.

Ваш клиент при этом должен произвести хеширование (проверку) старой папки (если не производит сам - помогите ему сделать это), и будет докачивать только те серии которых у вас ещё нет. Старые серии при этом не удаляются, а продолжают раздаваться!

Eсли вы уже удалили старые серии, то предотвратить повторную закачку старых серий можно, отжав галочку в соответствующих местах при запуске нового торрента. По возможности, желательно не удалять старые серии как можно дольше, чтобы релизёр не столько продолжал раздавать старые серии, а смог сконцентрироваться на новых.



Общее
Уникальный идентификатор : 232108645379989650667683676073301907784 (0xAE9E7FC1AA5150F6BE5DB05E4B641948)
Полное имя : D:\IDEAFILM\Alexa.and.Katie.S01.WEBRip.1080p\Alexa.and.Katie.S01E01.WEBRip.1080p-IdeaFilm.mkv
Формат : Matroska
Версия формата : Version 4 / Version 2
Размер файла : 1,41 Гбайт
Продолжительность : 27 м. 22 с.
Общий поток : 7395 Кбит/сек
Дата кодирования : UTC 2018-04-12 10:18:12
Программа кодирования : mkvmerge v12.0.0 ('Trust / Lust') 64bit
Библиотека кодирования : libebml v1.3.4 + libmatroska v1.4.5

Видео
Идентификатор : 1
Формат : AVC
Формат/Информация : Advanced Video Codec
Профиль формата :
Настройки формата : CABAC / 3 Ref Frames
Параметр CABAC формата : Да
Параметр RefFrames формата : 3 кадра
Идентификатор кодека : V_MPEG4/ISO/AVC
Продолжительность : 27 м. 22 с.
Битрейт : 6635 Кбит/сек
Ширина : 1920 пикселей
Высота : 1080 пикселей
Соотношение сторон : 16:9
Режим частоты кадров : Постоянный
Частота кадров : 23,976 (24000/1001) кадра/сек
Стандарт вещания : NTSC
Цветовое пространство : YUV
Субдискретизация насыщенности : 4:2:0
Битовая глубина : 8 бит
Тип развёртки : Прогрессивная
Бит/(Пиксели*Кадры) : 0.133
Размер потока : 1,27 Гбайт (90%)
Язык : English
Default : Да
Forced : Нет
Цветовой диапазон : Limited
Основные цвета : BT.709
Характеристики трансфера : BT.709
Коэффициенты матрицы : BT.709

Аудио #1
Идентификатор : 2
Формат : AC-3
Формат/Информация : Audio Coding 3
Идентификатор кодека : A_AC3
Продолжительность : 27 м. 22 с.
Вид битрейта : Постоянный
Битрейт : 384 Кбит/сек
Каналы : 6 каналов
Расположение каналов : Front: L C R, Side: L R, LFE
Частота : 48,0 КГц
Частота кадров : 31,250 кадров/сек (1536 SPF)
Битовая глубина : 16 бит
Метод сжатия : С потерями
Размер потока : 75,2 Мбайт (5%)
Заголовок : IdeaFilm
Язык : Russian
ServiceKind/String : Complete Main
Default : Да
Forced : Нет

Аудио #2
Идентификатор : 3
Формат : AC-3
Формат/Информация : Audio Coding 3
Идентификатор кодека : A_AC3
Продолжительность : 26 м. 42 с.
Битрейт : 384 Кбит/сек
Каналы : 6 каналов
Частота : 48,0 КГц
Частота кадров : 31,250 кадров/сек (1536 SPF)
Метод сжатия : С потерями
Размер потока : 73,4 Мбайт (5%)
Язык : English
Default : Нет
Forced : Нет







   Похожие торренты   Торрент   Размер 
В этой теме нет новых непрочитанных сообщений. Алекса и Кэти,1 сезон 1-5 серии из 13 / Alexa & Katie [IdeaFilm] (Энди Кэдифф, Тревор Киршнер, Кэти Гарретсон) [2018, Комедия, WEBRip, Р]

0 | 0

1.69 ГБ

В этой теме нет новых непрочитанных сообщений. Алекса и Кэти,1 сезон 1-5 серии из 13 / Alexa & Katie [IdeaFilm] (Энди Кэдифф, Тревор Киршнер, Кэти Гарретсон) [2018, Комедия, WEBRip 720p, Р]

0 | 0

4.9 ГБ

В этой теме нет новых непрочитанных сообщений. Сыновья Кэти Элдер / The Sons of Katie Elder (1965) WEBRip от Koenig

28 | 9

1.45 ГБ

В этой теме нет новых непрочитанных сообщений. Сыновья Кэти Элдер / The Sons of Katie Elder (1965) DVD9 | P

27 | 14

6.86 ГБ

В этой теме нет новых непрочитанных сообщений. Кевин подождет, 2 сезон 1-18 серии из 24 / Kevin Can Wait [IdeaFilm] (Энди Фикмен) [2017, комедия, HDTV 1080p, P]

4 | 4

20.67 ГБ

В этой теме нет новых непрочитанных сообщений. Кевин подождет, 2 сезон 1-2 серии из 24 / Kevin Can Wait [IdeaFilm] (Энди Фикмен) [2017, комедия, HDTV 1080p, P]

0 | 10

2.43 ГБ

В этой теме нет новых непрочитанных сообщений. Кремниевая долина, 5 сезон 1-8 серии из 8 / Silicon Valley [IdeaFilm] (Майк Джадж) [2018, комедия, WEBRip 1080p, P]

5 | 6

13.18 ГБ




Вы не можете начинать темы
Вы не можете отвечать на сообщения
Вы не можете редактировать свои сообщения
Вы не можете удалять свои сообщения
Вы не можете добавлять вложения

Перейти:  
 Вход
ppkBB3cker v.2 © 2008-2014 @ PPK
[ Time : 0.029s | 17 Queries | GZIP : Off ]

cron