img image001 image001 image001 image001 image001 image001 image001 image001 image001 image001 image001 image001 image001 image001 image001 image001

Planets Sun Sun Sun
Статистика раздачи
Автор: Снежана | Размер: 7.86 ГБ | Добавлен: 16 май 2018
Раздают: 9    Качают: 5
Скачать торрент
Скачать торрент
Описание торрента

СообщениеДобавлено: 16 май 2018 

Здесь и сейчас / Here and Now


Перевод: Профессиональный (многоголосый, закадровый) IdeaFilm
Субтитры: отсутствуют
Формат: WEBRip, AVI, XviD, AC3
Страна: США
Режиссер: Ута Бризвитц, Алан Болл, Джереми Подесва
Жанр: Драма, комедия
Всего серий: 10
Продолжительность: 9 х ~ 01:00:00
Год выпуска: 2018

В ролях: Холли Хантер, Соси Бэйкон, Джеррика Хинтон, Рэймонд Ли, Тим Роббинс, Дэниэл Дзоватто, Марван Салама, Джо Уильямсон, Некар Задеган

Описание: История о многонациональной семье, которая живет в США: профессоре философии Грег Бишоп, его супруге-юристе Одри, их общем ребенке и трех приёмных детях - из Вьетнама, Колумбии и Сомали. За фасадом счастливого, прогрессивного семейства таится множество проблем, к которым со временем прибавляется ещё одна напасть - один из детей начинает наблюдать необъяснимые вещи, невидимые для других.



Видео: 720x400 (16:9), 23.976 fps, XviD MPEG-4 ~1752 kbps avg, 0.254 bit/pixel
Аудио #1 Rus: 48 kHz, AC3 Dolby Digital, 3/2 (L,C,R,l,r) + LFE ch, ~384 kbps

Внимание, присутствует реклама!
Раздача ведется путем добавления новых серий.

Добавлена 9 серия.


Внимание! Раздача ведётся путём добавления новых серий; при каждом добавлении создаётся новый торрент. Чтобы начать докачку новой серии, пользователям необходимо сделать следующее:
(1) остановить скачивание,
(2) удалить старый торрент у себя из клиента (старые серии удалять не надо),
(3) скачать новый торрент и запустить его у себя в клиенте вместо старого, при этом указать клиенту путь в старую папку куда и должно происходить скачивание новых серий.

Ваш клиент при этом должен произвести хеширование (проверку) старой папки (если не производит сам - помогите ему сделать это), и будет докачивать только те серии которых у вас ещё нет. Старые серии при этом не удаляются, а продолжают раздаваться!

Eсли вы уже удалили старые серии, то предотвратить повторную закачку старых серий можно, отжав галочку в соответствующих местах при запуске нового торрента. По возможности, желательно не удалять старые серии как можно дольше, чтобы релизёр не столько продолжал раздавать старые серии, а смог сконцентрироваться на новых.



Video
ID : 0
Format : MPEG-4 Visual
Format profile : Advanced Simple@L5
Format settings, BVOP : 2
Format settings, QPel : No
Format settings, GMC : No warppoints
Format settings, Matrix : Default (H.263)
Muxing mode : Packed bitstream
Codec ID : XVID
Codec ID/Hint : XviD
Duration : 1 h 0 min
Bit rate : 1 752 kb/s
Width : 720 pixels
Height : 400 pixels
Display aspect ratio : 16:9
Frame rate : 23.976 (24000/1001) FPS
Color space : YUV
Chroma subsampling : 4:2:0
Bit depth : 8 bits
Scan type : Progressive
Compression mode : Lossy
Bits/(Pixel*Frame) : 0.254
Stream size : 752 MiB (82%)
Writing library : XviD 73

Audio
ID : 1
Format : AC-3
Format/Info : Audio Coding 3
Format settings, Endianness : Big
Codec ID : 2000
Duration : 1 h 0 min
Bit rate mode : Constant
Bit rate : 384 kb/s
Channel(s) : 6 channels
Channel positions : Front: L C R, Side: L R, LFE
Sampling rate : 48.0 kHz
Frame rate : 31.250 FPS (1536 SPF)
Bit depth : 16 bits
Compression mode : Lossy
Stream size : 165 MiB (18%)
Alignment : Aligned on interleaves
Interleave, duration : 42 ms (1.00 video frame)
Interleave, preload duratio : 512 ms
Service kind : Complete Main





   Похожие торренты   Торрент   Размер 
В этой теме нет новых непрочитанных сообщений. Здесь и сейчас, 1 сезон 1-9 серии из 10 / Here and Now [IdeaFilm] (Ута Бризвитц, Алан Болл, Джереми Подесва) [2018, драма, комедия, WEBRip 1080p, Р]

4 | 0

42.94 ГБ

В этой теме нет новых непрочитанных сообщений. Здесь и сейчас, 1 сезон 1-9 серии из 10 / Here and Now [IdeaFilm] (Ута Бризвитц, Алан Болл, Джереми Подесва) [2018, драма, комедия, WEBRip 720p, Р]

0 | 0

28.68 ГБ

В этой теме нет новых непрочитанных сообщений. Двойка, 1 сезон 1-2 серии из 8 / The Deuce [IdeaFilm] (Джеймс Франко, Мишель МакЛарен, Ута Бризвитц) [2017, драма, WEBRip, P]

1 | 7

2.2 ГБ

В этой теме нет новых непрочитанных сообщений. Двойка, 1 сезон 1-2 серии из 8 / The Deuce [IdeaFilm] (Джеймс Франко, Мишель МакЛарен, Ута Бризвитц) [2017, драма, WEBRip 1080p, P]

7 | 9

14.07 ГБ

В этой теме нет новых непрочитанных сообщений. Двойка, 1 сезон 1-2 серии из 8 / The Deuce [IdeaFilm] (Джеймс Франко, Мишель МакЛарен, Ута Бризвитц) [2017, драма, WEBRip 720p, P]

18 | 6

5.31 ГБ

В этой теме нет новых непрочитанных сообщений. Бешеные псы, 1 сезон 1-3 серии из 10 / Mad Dogs [NewStudio] (Чарльз МакДугалл, Ута Бризвитц, Джон Дэвид Коулз) [2016, драма, комедия, криминал, WEB-DLRip, P]

111 | 54

1.88 ГБ

В этой теме нет новых непрочитанных сообщений. Бешеные псы, 1 сезон 1-2 серии из 10 / Mad Dogs [NewStudio] (Чарльз МакДугалл, Ута Бризвитц, Джон Дэвид Коулз) [2016, драма, комедия, криминал, WEB-DLRip, P]

111 | 108

1.21 ГБ




Вы не можете начинать темы
Вы не можете отвечать на сообщения
Вы не можете редактировать свои сообщения
Вы не можете удалять свои сообщения
Вы не можете добавлять вложения

Перейти:  
 Вход
ppkBB3cker v.2 © 2008-2014 @ PPK
[ Time : 0.031s | 15 Queries | GZIP : Off ]

cron