img image001 image001 image001 image001 image001 image001 image001 image001 image001 image001 image001 image001 image001 image001 image001 image001

Planets Sun Sun Sun
Статистика раздачи
Автор: Снежана | Размер: 12.51 ГБ | Добавлен: 16 май 2018
Раздают: 1    Качают: 8
Скачать торрент
Скачать торрент
Описание торрента

СообщениеДобавлено: 16 май 2018 

Бойтесь ходячих мертвецов / Fear the Walking Dead

Перевод: Профессиональный (многоголосый, закадровый) IdeaFilm
Субтитры: отсутствуют
Формат: WEBRip, MKV, h.264, AC3
Страна: США
Режиссер: Адам Дэвидсон, Кари Скогланд, Стефан Шварц
Жанр: Ужасы, драма
Всего серий: 16
Продолжительность: 5х ~00:45:00
Год выпуска: 2018

В ролях: Клифф Кёртис, Ким Диккенс, Алисия Дебнем-Кери, Фрэнк Диллэйн, Рубен Блэйдс, Мерседес Масон, Колман Доминго, Лоренцо Джеймс Хенри, Элизабет Родригес, Тони Френч

Описание: Действия сериала происходят параллельно с событиями зомби-апокалипсиса, показанными в сериале «Ходячие мертвецы», но в совершенно другом месте — Лос-Анджелесе. Акцент будет сделан на семейные отношения, в частности, проблемы отцов и детей. История вращается вокруг Шона — разведённого школьного учителя и Нэнси руководительницы женского совета. А так же детей Нэнси: Ника, который борется с наркотической зависимостью и амбициозной дочери Эшли.


Рейтинг на:

Видео: 1920x1080 (16/9), 23,976 fps, AVC (х264), , ~6914 kbps avg, 0.139 bit/pixel
Аудио #1 Rus: :48 kHz, AC3 Dolby Digital, 3/2 (L,C,R,l,r) + LFE ch, ~384 kbps
Аудио #1 Eng: :48 kHz, AC3 Dolby Digital, 3/2 (L,C,R,l,r) + LFE ch, ~384 kbps

Внимание, присутствует реклама!


Внимание! Раздача ведётся путём добавления новых серий; при каждом добавлении создаётся новый торрент. Чтобы начать докачку новой серии, пользователям необходимо сделать следующее:
(1) остановить скачивание,
(2) удалить старый торрент у себя из клиента (старые серии удалять не надо),
(3) скачать новый торрент и запустить его у себя в клиенте вместо старого, при этом указать клиенту путь в старую папку куда и должно происходить скачивание новых серий.

Ваш клиент при этом должен произвести хеширование (проверку) старой папки (если не производит сам - помогите ему сделать это), и будет докачивать только те серии которых у вас ещё нет. Старые серии при этом не удаляются, а продолжают раздаваться!

Eсли вы уже удалили старые серии, то предотвратить повторную закачку старых серий можно, отжав галочку в соответствующих местах при запуске нового торрента. По возможности, желательно не удалять старые серии как можно дольше, чтобы релизёр не столько продолжал раздавать старые серии, а смог сконцентрироваться на новых.



Общее
Уникальный идентификатор : 199724314274153105582065130056425453407 (0x964180F5A5B35FF2974AB047DB68B75F)
Полное имя : D:\IDEAFILM\Fear.the.Walking.Dead.S04.WEBRip.1080p\Fear.the.Walking.Dead.S04E01.WEBRip.1080p-IdeaFilm.mkv
Формат : Matroska
Версия формата : Version 4 / Version 2
Размер файла : 2,66 Гбайт
Продолжительность : 49 м. 38 с.
Общий поток : 7684 Кбит/сек
Дата кодирования : UTC 2018-04-24 19:51:53
Программа кодирования : mkvmerge v12.0.0 ('Trust / Lust') 64bit
Библиотека кодирования : libebml v1.3.4 + libmatroska v1.4.5

Видео
Идентификатор : 1
Формат : AVC
Формат/Информация : Advanced Video Codec
Профиль формата :
Настройки формата : CABAC / 3 Ref Frames
Параметр CABAC формата : Да
Параметр RefFrames формата : 3 кадра
Идентификатор кодека : V_MPEG4/ISO/AVC
Продолжительность : 49 м. 38 с.
Битрейт : 6914 Кбит/сек
Ширина : 1920 пикселей
Высота : 1080 пикселей
Соотношение сторон : 16:9
Режим частоты кадров : Постоянный
Частота кадров : 23,976 (24000/1001) кадра/сек
Стандарт вещания : NTSC
Цветовое пространство : YUV
Субдискретизация насыщенности : 4:2:0
Битовая глубина : 8 бит
Тип развёртки : Прогрессивная
Бит/(Пиксели*Кадры) : 0.139
Размер потока : 2,40 Гбайт (90%)
Язык : English
Default : Да
Forced : Нет
Цветовой диапазон : Limited
Основные цвета : BT.709
Характеристики трансфера : BT.709
Коэффициенты матрицы : BT.709

Аудио #1
Идентификатор : 2
Формат : AC-3
Формат/Информация : Audio Coding 3
Идентификатор кодека : A_AC3
Продолжительность : 49 м. 38 с.
Вид битрейта : Постоянный
Битрейт : 384 Кбит/сек
Каналы : 6 каналов
Расположение каналов : Front: L C R, Side: L R, LFE
Частота : 48,0 КГц
Частота кадров : 31,250 кадров/сек (1536 SPF)
Битовая глубина : 16 бит
Метод сжатия : С потерями
Размер потока : 136 Мбайт (5%)
Заголовок : IdeaFilm
Язык : Russian
ServiceKind/String : Complete Main
Default : Да
Forced : Нет

Аудио #2
Идентификатор : 3
Формат : AC-3
Формат/Информация : Audio Coding 3
Идентификатор кодека : A_AC3
Продолжительность : 49 м. 38 с.
Вид битрейта : Постоянный
Битрейт : 384 Кбит/сек
Каналы : 6 каналов
Расположение каналов : Front: L C R, Side: L R, LFE
Частота : 48,0 КГц
Частота кадров : 31,250 кадров/сек (1536 SPF)
Битовая глубина : 16 бит
Метод сжатия : С потерями
Размер потока : 136 Мбайт (5%)
Язык : English
ServiceKind/String : Complete Main
Default : Нет
Forced : Нет







   Похожие торренты   Торрент   Размер 
В этой теме нет новых непрочитанных сообщений. Бойтесь ходячих мертвецов, 4 сезон 1-5 серия из 16 / Fear the Walking Dead [IdeaFilm] (Адам Дэвидсон, Кари Скогланд, Стефан Шварц) [2018, Ужасы, драма, WEBRip, P]

4 | 6

3.08 ГБ

В этой теме нет новых непрочитанных сообщений. Бойтесь ходячих мертвецов, 4 сезон 1-5 серия из 16 / Fear the Walking Dead [IdeaFilm] (Адам Дэвидсон, Кари Скогланд, Стефан Шварц) [2018, Ужасы, драма, WEBRip 720p, P]

3 | 7

8.53 ГБ

В этой теме нет новых непрочитанных сообщений. Бойтесь ходячих мертвецов, 3 сезон 1-5 серия из 16 / Fear the Walking Dead [IdeaFilm] (Адам Дэвидсон, Кари Скогланд, Стефан Шварц) [2017, ужасы, драма, WEB-DL 720p, P]

4 | 9

7.5 ГБ

В этой теме нет новых непрочитанных сообщений. Бойтесь ходячих мертвецов, 3 сезон 1-5 серия из 16 / Fear the Walking Dead [ColdFilm] (Адам Дэвидсон, Кари Скогланд, Стефан Шварц) [2017, ужасы, драма, WEBRip, L]

14 | 29

2.65 ГБ

В этой теме нет новых непрочитанных сообщений. Бойтесь ходячих мертвецов, 3 сезон 1-4 серия из 16 / Fear the Walking Dead [ColdFilm] (Адам Дэвидсон, Кари Скогланд, Стефан Шварц) [2017, ужасы, драма, WEBRip, L]

10 | 8

2.15 ГБ

В этой теме нет новых непрочитанных сообщений. Бойтесь ходячих мертвецов, 3 сезон 1-13 серия из 16 / Fear the Walking Dead [LostFilm] (Адам Дэвидсон, Кари Скогланд, Стефан Шварц) [2017, ужасы, драма, WEB-DLRip, P]

8 | 0

6.56 ГБ

В этой теме нет новых непрочитанных сообщений. Бойтесь ходячих мертвецов, 3 сезон 1-4 серия из 16 / Fear the Walking Dead [LostFilm] (Адам Дэвидсон, Кари Скогланд, Стефан Шварц) [2017, ужасы, драма, WEB-DLRip, P]

15 | 16

2.05 ГБ




Вы не можете начинать темы
Вы не можете отвечать на сообщения
Вы не можете редактировать свои сообщения
Вы не можете удалять свои сообщения
Вы не можете добавлять вложения

Перейти:  
 Вход
ppkBB3cker v.2 © 2008-2014 @ PPK
[ Time : 0.052s | 19 Queries | GZIP : Off ]

cron