img image001 image001 image001 image001 image001 image001 image001 image001 image001 image001 image001 image001 image001 image001 image001 image001

Planets Sun Sun Sun
Статистика раздачи
Автор: Снежана | Размер: 13.44 ГБ | Добавлен: 16 май 2018
Раздают: 0    Качают: 0
Скачать торрент
Скачать торрент
Описание торрента

СообщениеДобавлено: 16 май 2018 

Нереально / UnREAL


Перевод: Профессиональный (многоголосый, закадровый) IdeaFilm
Субтитры: отсутствуют
Формат: WEB-DLRip 720p, MKV, H.264, AC3
Страна: США
Режиссер: Питер О’Фаллон, Констанс Зиммер
Жанр: Драма
Всего серий: 10
Продолжительность: 10 х ~ 00:43:00
Год выпуска: 2018

В ролях: Шири Эпплби, Бреннан Эллиотт, Констанс Зиммер, Крэйг Бирко, Джеффри Бауэр-Чепман, Джош Келли, Женевьев Бюкнер, Донаван Стинсон, Адам Демос, Барт Эдвардс, Кэйтлин Фицджералд, Алексей Воробьев

Описание: Настоящий хаос окружает съемки любовных реалити-шоу. За кулисами может оказаться всё гораздо интереснее, чем в эфире. В погоне за рейтингами приходится всячески манипулировать конкурсантами, чтобы те выдали необходимый «материал» для шоу. А продюсер может уволить кого угодно за малейший недочёт.



Видео: 1280x720 (16:9), 23,976 fps, AVC (х264), , ~3930 kbps avg, 0.178 bit/pixel
Аудио #1 Rus: 48 kHz, AC3 Dolby Digital, 2/0 (L,R), ~192 kbps
Аудио #2 Eng: 48 kHz, AC3 Dolby Digital, 2/0 (L,R), ~384 kbps

Внимание, присутствует реклама!


Video
ID : 1
Format : AVC
Format/Info : Advanced Video Codec
Format profile :
Format settings, CABAC : Yes
Format settings, RefFrames : 4 frames
Codec ID : V_MPEG4/ISO/AVC
Duration : 42 min 16 s
Bit rate : 3 930 kb/s
Width : 1 280 pixels
Height : 720 pixels
Display aspect ratio : 16:9
Frame rate mode : Constant
Frame rate : 23.976 (24000/1001) FPS
Standard : NTSC
Color space : YUV
Chroma subsampling : 4:2:0
Bit depth : 8 bits
Scan type : Progressive
Bits/(Pixel*Frame) : 0.178
Stream size : 1.16 GiB (87%)
Language : English
Default : Yes
Forced : No
Color range : Limited
Color primaries : BT.709
Transfer characteristics : BT.709
Matrix coefficients : BT.709

Audio #1
ID : 2
Format : AC-3
Format/Info : Audio Coding 3
Format settings, Endianness : Big
Codec ID : A_AC3
Duration : 42 min 16 s
Bit rate mode : Constant
Bit rate : 192 kb/s
Channel(s) : 2 channels
Channel positions : Front: L R
Sampling rate : 48.0 kHz
Frame rate : 31.250 FPS (1536 SPF)
Bit depth : 16 bits
Compression mode : Lossy
Stream size : 58.1 MiB (4%)
Title : IDEAFILM
Language : Russian
Service kind : Complete Main
Default : Yes
Forced : No

Audio #2
ID : 3
Format : AC-3
Format/Info : Audio Coding 3
Codec ID : A_AC3
Duration : 41 min 36 s
Bit rate : 384 kb/s
Channel(s) : 2 channels
Sampling rate : 48.0 kHz
Frame rate : 31.250 FPS (1536 SPF)
Compression mode : Lossy
Stream size : 114 MiB (8%)
Language : English
Default : No
Forced : No







   Похожие торренты   Торрент   Размер 
В этой теме нет новых непрочитанных сообщений. Нереально, 3 сезон 1-10 серии из 10 / UnREAL [IdeaFilm] (Питер О’Фаллон, Констанс Зиммер) [2018, драма, WEB-DLRip, Р]

6 | 5

5.91 ГБ

В этой теме нет новых непрочитанных сообщений. Нереально, 3 сезон 1-10 серии из 10 / UnREAL [IdeaFilm] (Питер О’Фаллон, Констанс Зиммер) [2018, драма, WEB-DLRip 1080p, Р]

0 | 0

22.25 ГБ

В этой теме нет новых непрочитанных сообщений. Футболисты, 3 сезон 1-5 серии из 10 / Ballers [IdeaFilm] (Питер Берг) [2017, драма, комедия, WEBRip 720p, P]

4 | 5

5.62 ГБ

В этой теме нет новых непрочитанных сообщений. Футболисты, 3 сезон 1 серии из 10 / Ballers [IdeaFilm] (Питер Берг) [2017, драма, комедия, WEBRip 720p, P]

2 | 4

1.16 ГБ

В этой теме нет новых непрочитанных сообщений. Футболисты, 3 сезон 1-2 серии из 10 / Ballers [IdeaFilm] (Питер Берг) [2017, драма, комедия, WEBRip 720p, P]

2 | 6

2.31 ГБ

В этой теме нет новых непрочитанных сообщений. Футболисты, 3 сезон 1-9 серии из 10 / Ballers [IdeaFilm] (Питер Берг) [2017, драма, комедия, WEBRip 720p, P]

0 | 0

10.12 ГБ

В этой теме нет новых непрочитанных сообщений. Футболисты, 3 сезон 1-3 серии из 10 / Ballers [IdeaFilm] (Питер Берг) [2017, драма, комедия, WEBRip 720p, P]

0 | 0

3.4 ГБ




Вы не можете начинать темы
Вы не можете отвечать на сообщения
Вы не можете редактировать свои сообщения
Вы не можете удалять свои сообщения
Вы не можете добавлять вложения

Перейти:  
 Вход
ppkBB3cker v.2 © 2008-2014 @ PPK
[ Time : 0.034s | 15 Queries | GZIP : Off ]

cron