img image001 image001 image001 image001 image001 image001 image001 image001 image001 image001 image001 image001 image001 image001 image001 image001

Planets Sun Sun Sun
Статистика раздачи
Автор: Снежана | Размер: 5.91 ГБ | Добавлен: 16 май 2018
Раздают: 6    Качают: 5
Скачать торрент
Скачать торрент
Описание торрента

СообщениеДобавлено: 16 май 2018 

Нереально / UnREAL


Перевод: Профессиональный (многоголосый, закадровый) IdeaFilm
Субтитры: отсутствуют
Формат: WEB-DLRip, AVI, XviD, AC3
Страна: США
Режиссер: Питер О’Фаллон, Констанс Зиммер
Жанр: Драма
Всего серий: 10
Продолжительность: 10 х ~ 00:43:00
Год выпуска: 2018

В ролях: Шири Эпплби, Бреннан Эллиотт, Констанс Зиммер, Крэйг Бирко, Джеффри Бауэр-Чепман, Джош Келли, Женевьев Бюкнер, Донаван Стинсон, Адам Демос, Барт Эдвардс, Кэйтлин Фицджералд, Алексей Воробьев

Описание: Настоящий хаос окружает съемки любовных реалити-шоу. За кулисами может оказаться всё гораздо интереснее, чем в эфире. В погоне за рейтингами приходится всячески манипулировать конкурсантами, чтобы те выдали необходимый «материал» для шоу. А продюсер может уволить кого угодно за малейший недочёт.



Видео: 720x400 (16:9), 23.976 fps, XviD MPEG-4 ~1780 kbps avg, 0.258 bit/pixel
Аудио #1 Rus: 48 kHz, AC3 Dolby Digital, 2/0 (L,R), ~192 kbps

Внимание, присутствует реклама!


Video
ID : 0
Format : MPEG-4 Visual
Format profile : Advanced Simple@L5
Format settings, BVOP : 2
Format settings, QPel : No
Format settings, GMC : No warppoints
Format settings, Matrix : Default (H.263)
Muxing mode : Packed bitstream
Codec ID : XVID
Codec ID/Hint : XviD
Duration : 42 min 16 s
Bit rate : 1 780 kb/s
Width : 720 pixels
Height : 400 pixels
Display aspect ratio : 16:9
Frame rate : 23.976 (24000/1001) FPS
Color space : YUV
Chroma subsampling : 4:2:0
Bit depth : 8 bits
Scan type : Progressive
Compression mode : Lossy
Bits/(Pixel*Frame) : 0.258
Stream size : 538 MiB (90%)
Writing library : XviD 73

Audio
ID : 1
Format : AC-3
Format/Info : Audio Coding 3
Format settings, Endianness : Big
Codec ID : 2000
Duration : 42 min 16 s
Bit rate mode : Constant
Bit rate : 192 kb/s
Channel(s) : 2 channels
Channel positions : Front: L R
Sampling rate : 48.0 kHz
Frame rate : 31.250 FPS (1536 SPF)
Bit depth : 16 bits
Compression mode : Lossy
Stream size : 58.1 MiB (10%)
Alignment : Aligned on interleaves
Interleave, duration : 42 ms (1.00 video frame)
Interleave, preload duratio : 512 ms
Service kind : Complete Main





   Похожие торренты   Торрент   Размер 
В этой теме нет новых непрочитанных сообщений. Нереально, 3 сезон 1-10 серии из 10 / UnREAL [IdeaFilm] (Питер О’Фаллон, Констанс Зиммер) [2018, драма, WEB-DLRip 720p, Р]

0 | 0

13.44 ГБ

В этой теме нет новых непрочитанных сообщений. Нереально, 3 сезон 1-10 серии из 10 / UnREAL [IdeaFilm] (Питер О’Фаллон, Констанс Зиммер) [2018, драма, WEB-DLRip 1080p, Р]

0 | 0

22.25 ГБ

В этой теме нет новых непрочитанных сообщений. Вайнона Эрп, 2 сезон 1-7 серии из 12 / Wynonna Earp [IdeaFilm] (Рон Мерфи, Питер Стеббингс, Бретт Салливан) [2017, фэнтези, боевик, триллер, драма, детектив, вестерн, WEB-DLRip, HDTVRip, P]

0 | 0

4.04 ГБ

В этой теме нет новых непрочитанных сообщений. Вайнона Эрп, 2 сезон 1-11 серии из 12 / Wynonna Earp [IdeaFilm] (Рон Мерфи, Питер Стеббингс, Бретт Салливан) [2017, фэнтези, боевик, триллер, драма, детектив, вестерн, WEB-DLRip, HDTVRip, P]

1 | 2

6.35 ГБ

В этой теме нет новых непрочитанных сообщений. Вайнона Эрп, 2 сезон 1-4 серии из 12 / Wynonna Earp [IdeaFilm] (Рон Мерфи, Питер Стеббингс, Бретт Салливан) [2017, фэнтези, боевик, триллер, драма, детектив, вестерн, WEB-DLRip, HDTVRip, P]

9 | 24

2.3 ГБ

В этой теме нет новых непрочитанных сообщений. Вайнона Эрп, 2 сезон 1-9 серии из 12 / Wynonna Earp [IdeaFilm] (Рон Мерфи, Питер Стеббингс, Бретт Салливан) [2017, фэнтези, боевик, триллер, драма, детектив, вестерн, WEB-DLRip, HDTVRip, P]

2 | 4

5.2 ГБ

В этой теме нет новых непрочитанных сообщений. Вайнона Эрп, 2 сезон 1-10 серии из 12 / Wynonna Earp [IdeaFilm] (Рон Мерфи, Питер Стеббингс, Бретт Салливан) [2017, фэнтези, боевик, триллер, драма, детектив, вестерн, WEB-DLRip, HDTVRip, P]

1 | 0

5.78 ГБ




Вы не можете начинать темы
Вы не можете отвечать на сообщения
Вы не можете редактировать свои сообщения
Вы не можете удалять свои сообщения
Вы не можете добавлять вложения

Перейти:  
 Вход
ppkBB3cker v.2 © 2008-2014 @ PPK
[ Time : 0.033s | 16 Queries | GZIP : Off ]

cron