img image001 image001 image001 image001 image001 image001 image001 image001 image001 image001 image001 image001 image001 image001 image001 image001

Planets Sun Sun Sun
Статистика раздачи
Автор: Снежана | Размер: 13.18 ГБ | Добавлен: 16 май 2018
Раздают: 10    Качают: 7
Скачать торрент
Скачать торрент
Описание торрента

СообщениеДобавлено: 16 май 2018 

Кремниевая долина / Silicon Valley

Перевод: Профессиональный (многоголосый, закадровый) IdeaFilm
Субтитры: отсутствуют
Формат: WEBRip, MKV, h.264, AC3
Страна: США
Режиссер: Майк Джадж
Жанр: комедия
Всего серий: 8
Продолжительность: 8 х ~00:25:00
Год выпуска: 2018

В ролях: Томас Миддлдитч, ТиДжей Миллер, Джош Бренер, Мартин Старр, Кумэйл Нанджиани, Али Моджи, Аманда Крю, Зак Вудс, Кристофер Ивэн Уэлш, Мэтт Росс, Джимми О. Ян, Сюзанн Крайер, Брайан Тишнелл, Джилл Е. Александр, Бернард Уайт, Дастин Гулледж, Крис Уильямс (II), Александр Майкл Хелисек, Рохелио Т. Рамос, Скотт Прендергаст, Анна Хайа, Крис Диамантополос, Стивен Тоболовски, Элис Веттерлунд, Артур Кэн, Пин Ву, Кэйси О’Фэррелл

Описание: Жизнь в Силиконовой долине – жестокая борьба за место под калифорнийским солнцем. Каждый здесь мечтает стать новым Джобсом. Шестеро молодых айтишников пытаются придумать прорывный стартап, который принесет им славу и деньги. Но великие изобретатели беспомощны в повседневной жизни, а толковые прагматики не могут справиться со звездной болезнью. Создатель шоу Майк Джадж, автор «Бивиса и Баттхеда», знает, как превратить эти гиковские сложности в комедию.


Рейтинг на:

Видео: 1920x1080 (16/9), 23,976 fps, AVC (х264), , ~6767 kbps avg, 0.136 bit/pixel
Аудио #1 Rus: :48 kHz, AC3 Dolby Digital, 3/2 (L,C,R,l,r) + LFE ch, ~384 kbps
Аудио #1 Eng: :48 kHz, AC3 Dolby Digital, 3/2 (L,C,R,l,r) + LFE ch, ~384 kbps

Внимание, присутствует реклама!

Общее
Уникальный идентификатор : 192451002949478327362431674052827255146 (0x90C8B7065BD204C2B8AF7EFAC94D916A)
Полное имя : D:\IDEAFILM\Silicon.Valley.S05.WEBRip.1080p\Silicon.Valley.S05E01.WEBRip.1080p-IdeaFilm.mkv
Формат : Matroska
Версия формата : Version 4 / Version 2
Размер файла : 1,71 Гбайт
Продолжительность : 32 м. 32 с.
Общий поток : 7529 Кбит/сек
Дата кодирования : UTC 2018-03-27 11:36:26
Программа кодирования : mkvmerge v12.0.0 ('Trust / Lust') 64bit
Библиотека кодирования : libebml v1.3.4 + libmatroska v1.4.5

Видео
Идентификатор : 1
Формат : AVC
Формат/Информация : Advanced Video Codec
Профиль формата :
Настройки формата : CABAC / 3 Ref Frames
Параметр CABAC формата : Да
Параметр RefFrames формата : 3 кадра
Идентификатор кодека : V_MPEG4/ISO/AVC
Продолжительность : 32 м. 32 с.
Битрейт : 6767 Кбит/сек
Ширина : 1920 пикселей
Высота : 1080 пикселей
Соотношение сторон : 16:9
Режим частоты кадров : Постоянный
Частота кадров : 23,976 (24000/1001) кадра/сек
Стандарт вещания : NTSC
Цветовое пространство : YUV
Субдискретизация насыщенности : 4:2:0
Битовая глубина : 8 бит
Тип развёртки : Прогрессивная
Бит/(Пиксели*Кадры) : 0.136
Размер потока : 1,54 Гбайт (90%)
Язык : English
Default : Да
Forced : Нет
Цветовой диапазон : Limited
Основные цвета : BT.709
Характеристики трансфера : BT.709
Коэффициенты матрицы : BT.709

Аудио #1
Идентификатор : 2
Формат : AC-3
Формат/Информация : Audio Coding 3
Идентификатор кодека : A_AC3
Продолжительность : 32 м. 32 с.
Вид битрейта : Постоянный
Битрейт : 384 Кбит/сек
Каналы : 6 каналов
Расположение каналов : Front: L C R, Side: L R, LFE
Частота : 48,0 КГц
Частота кадров : 31,250 кадров/сек (1536 SPF)
Битовая глубина : 16 бит
Метод сжатия : С потерями
Размер потока : 89,4 Мбайт (5%)
Заголовок : IdeaFilm
Язык : Russian
ServiceKind/String : Complete Main
Default : Да
Forced : Нет

Аудио #2
Идентификатор : 3
Формат : AC-3
Формат/Информация : Audio Coding 3
Идентификатор кодека : A_AC3
Продолжительность : 31 м. 52 с.
Битрейт : 384 Кбит/сек
Каналы : 6 каналов
Частота : 48,0 КГц
Частота кадров : 31,250 кадров/сек (1536 SPF)
Метод сжатия : С потерями
Размер потока : 87,5 Мбайт (5%)
Язык : English
Default : Нет
Forced : Нет







   Похожие торренты   Торрент   Размер 
В этой теме нет новых непрочитанных сообщений. Кремниевая долина, 5 сезон 1-8 серии из 8 / Silicon Valley [IdeaFilm] (Майк Джадж) [2018, комедия, WEBRip, P]

14 | 15

3.31 ГБ

В этой теме нет новых непрочитанных сообщений. Кремниевая долина, 5 сезон 1-8 серии из 8 / Silicon Valley [IdeaFilm] (Майк Джадж) [2018, комедия, WEBRip 720p, P]

11 | 15

9.02 ГБ

В этой теме нет новых непрочитанных сообщений. Кремниевая Долина / Силиконовая Долина / Silicon Valley [01x01 из 08] (2014) WEBRip | Amedia

186 | 18

342.34 МБ

В этой теме нет новых непрочитанных сообщений. Кремниевая Долина / Силиконовая Долина / Silicon Valley [S01] (2014) WEBRip от qqss44 | Amedia

450 | 176

2.58 ГБ

В этой теме нет новых непрочитанных сообщений. Кремниевая Долина / Силиконовая Долина / Silicon Valley [S01] (2014) WEBRip 720p | Amedia

95 | 37

5.29 ГБ

В этой теме нет новых непрочитанных сообщений. Кремниевая Долина / Силиконовая Долина / Silicon Valley [01x01-03 из 08] (2014) WEBRip от qqss44 | Amedia

86 | 36

1010.09 МБ

В этой теме нет новых непрочитанных сообщений. Кремниевая Долина / Силиконовая Долина / Silicon Valley [01x01-04 из 08] (2014) WEBRip от qqss44 | Amedia

112 | 81

1.31 ГБ




Вы не можете начинать темы
Вы не можете отвечать на сообщения
Вы не можете редактировать свои сообщения
Вы не можете удалять свои сообщения
Вы не можете добавлять вложения

Перейти:  
 Вход
ppkBB3cker v.2 © 2008-2014 @ PPK
[ Time : 0.032s | 16 Queries | GZIP : Off ]

cron