img image001 image001 image001 image001 image001 image001 image001 image001 image001 image001 image001 image001 image001 image001 image001 image001

Planets Sun Sun Sun
Статистика раздачи
Автор: Снежана | Размер: 13.29 ГБ | Добавлен: 16 май 2018
Раздают: 4    Качают: 4
Скачать торрент
Скачать торрент
Описание торрента

СообщениеДобавлено: 16 май 2018 

Барри / Barry

Перевод: Профессиональный (многоголосый, закадровый) IdeaFilm
Субтитры: отсутствуют
Формат: WEBRip, MKV, h.264, AC3
Страна: США
Режиссер: Билл Хэйдер, Алек Берг, Мэгги Кэри
Жанр: Комедия
Всего серий: 8
Продолжительность: 8 х ~00:30:00
Год выпуска: 2018

В ролях: Билл Хэйдер, Генри Уинклер, Стивен Рут, Сара Голдберг, Гленн Флешлер, Энтони Кэрриган, Даррел Бритт-Гибсон, Энди Кэри, Алехандро Ферт, Паула Ньюсом, Джон Пирруччелло, Маркус Браун, Марк Иванир, Дэйл Павински, Камерон Бриттон, Карен Дэвид, Майкл Ирби

Описание: Барри — бывший морпех со Среднего Запада, а ныне никудышный киллер. Одинокий и неприкаянный, однажды он отправляется на заказ в Лос-Анджелес, где по воле случая оказывается на курсах актерского мастерства. Вдохновившись творческой атмосферой, Барри немедля решает стать актером и перезапустить свою жизнь.


Рейтинг на:

Видео: 1920x1080 (16/9), 23,976 fps, AVC (х264), , ~6696 kbps avg, 0.135 bit/pixel
Аудио #1 Rus: :48 kHz, AC3 Dolby Digital, 3/2 (L,C,R,l,r) + LFE ch, ~384 kbps
Аудио #1 Eng: :48 kHz, AC3 Dolby Digital, 3/2 (L,C,R,l,r) + LFE ch, ~384 kbps

Внимание, присутствует реклама!

Общее
Уникальный идентификатор : 223884385474337723445257511763287628814 (0xA86E906FD798D979AF772A0C0FF25C0E)
Полное имя : D:\IDEAFILM\Barry.S01.WEBRip.1080p\Barry.S01E01.WEBRip.1080p-IdeaFilm.mkv
Формат : Matroska
Версия формата : Version 4 / Version 2
Размер файла : 1,65 Гбайт
Продолжительность : 31 м. 38 с.
Общий поток : 7458 Кбит/сек
Дата кодирования : UTC 2018-03-27 15:04:15
Программа кодирования : mkvmerge v12.0.0 ('Trust / Lust') 64bit
Библиотека кодирования : libebml v1.3.4 + libmatroska v1.4.5

Видео
Идентификатор : 1
Формат : AVC
Формат/Информация : Advanced Video Codec
Профиль формата :
Настройки формата : CABAC / 3 Ref Frames
Параметр CABAC формата : Да
Параметр RefFrames формата : 3 кадра
Идентификатор кодека : V_MPEG4/ISO/AVC
Продолжительность : 31 м. 38 с.
Битрейт : 6696 Кбит/сек
Ширина : 1920 пикселей
Высота : 1080 пикселей
Соотношение сторон : 16:9
Режим частоты кадров : Постоянный
Частота кадров : 23,976 (24000/1001) кадра/сек
Стандарт вещания : NTSC
Цветовое пространство : YUV
Субдискретизация насыщенности : 4:2:0
Битовая глубина : 8 бит
Тип развёртки : Прогрессивная
Бит/(Пиксели*Кадры) : 0.135
Размер потока : 1,48 Гбайт (90%)
Язык : English
Default : Да
Forced : Нет
Цветовой диапазон : Limited
Основные цвета : BT.709
Характеристики трансфера : BT.709
Коэффициенты матрицы : BT.709

Аудио #1
Идентификатор : 2
Формат : AC-3
Формат/Информация : Audio Coding 3
Идентификатор кодека : A_AC3
Продолжительность : 31 м. 38 с.
Вид битрейта : Постоянный
Битрейт : 384 Кбит/сек
Каналы : 6 каналов
Расположение каналов : Front: L C R, Side: L R, LFE
Частота : 48,0 КГц
Частота кадров : 31,250 кадров/сек (1536 SPF)
Битовая глубина : 16 бит
Метод сжатия : С потерями
Размер потока : 86,9 Мбайт (5%)
Заголовок : IdeaFilm
Язык : Russian
ServiceKind/String : Complete Main
Default : Да
Forced : Нет

Аудио #2
Идентификатор : 3
Формат : AC-3
Формат/Информация : Audio Coding 3
Идентификатор кодека : A_AC3
Продолжительность : 30 м. 57 с.
Битрейт : 384 Кбит/сек
Каналы : 6 каналов
Частота : 48,0 КГц
Частота кадров : 31,250 кадров/сек (1536 SPF)
Метод сжатия : С потерями
Размер потока : 85,1 Мбайт (5%)
Язык : English
Default : Нет
Forced : Нет







   Похожие торренты   Торрент   Размер 
В этой теме нет новых непрочитанных сообщений. Барри, 1 сезон 1-8 серия из 8 / Barry [IdeaFilm] (Билл Хэйдер, Алек Берг, Мэгги Кэри) [2018, Комедия, WEBRip, P]

7 | 6

3.36 ГБ

В этой теме нет новых непрочитанных сообщений. Барри, 1 сезон 1-8 серия из 8 / Barry [IdeaFilm] (Билл Хэйдер, Алек Берг, Мэгги Кэри) [2018, Комедия, WEBRip 720p, P]

0 | 8

9.25 ГБ

В этой теме нет новых непрочитанных сообщений. Последний настоящий гангстер, 1 сезон 1-4 серия из 10 / The Last O.G [IdeaFilm] (Йорма Такконе) [2018, Комедия, WEBRip 1080p, P]

7 | 6

4.74 ГБ

В этой теме нет новых непрочитанных сообщений. Футболисты, 3 сезон 1-9 серии из 10 / Ballers [IdeaFilm] (Питер Берг) [2017, драма, комедия, WEBRip 1080p, P]

0 | 7

18.01 ГБ

В этой теме нет новых непрочитанных сообщений. Футболисты, 3 сезон 1-5 серии из 10 / Ballers [IdeaFilm] (Питер Берг) [2017, драма, комедия, WEBRip 1080p, P]

0 | 8

10.05 ГБ

В этой теме нет новых непрочитанных сообщений. Футболисты, 3 сезон 1-2 серии из 10 / Ballers [IdeaFilm] (Питер Берг) [2017, драма, комедия, WEBRip 1080p, P]

2 | 6

4.1 ГБ

В этой теме нет новых непрочитанных сообщений. Футболисты, 3 сезон 1-3 серии из 10 / Ballers [IdeaFilm] (Питер Берг) [2017, драма, комедия, WEBRip 1080p, P]

5 | 6

6.06 ГБ




Вы не можете начинать темы
Вы не можете отвечать на сообщения
Вы не можете редактировать свои сообщения
Вы не можете удалять свои сообщения
Вы не можете добавлять вложения

Перейти:  
 Вход
ppkBB3cker v.2 © 2008-2014 @ PPK
[ Time : 0.045s | 16 Queries | GZIP : Off ]

cron