img image001 image001 image001 image001 image001 image001 image001 image001 image001 image001 image001 image001 image001 image001 image001 image001

Planets Sun Sun Sun
Статистика раздачи
Автор: Снежана | Размер: 9.42 ГБ | Добавлен: 16 май 2018
Раздают: 0    Качают: 0
Скачать торрент
Скачать торрент
Описание торрента

СообщениеДобавлено: 16 май 2018 

Ночной дозор / Nachtwacht
(1-2 сезон)

Перевод: Профессиональный (двухголосый закадровый) | Хабар
Субтитры: отсутствуют
Формат: DVB / WEBRip, TS, AVC, MP2
Страна: Бельгия
Режиссер: Герт-Ван Бу, Дэмиен Ниборг
Жанр: фэнтези
Всего серий: 39
Продолжительность: 24 х ~00:25:00
Год выпуска: 2015

В ролях: Селин Вербик, Джиованни Кемпер, Луи Тиссен, Луна Ван Авермат, Бриджит Хайцер, Питер Ван Де Вельд, Свен Де Ридер.

Описание: В центре сюжета - три персонажа со сверхъестественными способностями (Владимир, Вилко и Килин), с магическими силами, а также их советник Веге. Все они живут в деревне Шемермер, в которой присутствует портал, с помощью которого появляются существа из подземного мира, обычно в человеческой форме.

Рейтинг:

Видео: 720х576 (16:9) @ 1047x576, 25 fps, AVC High@L3 ~2000 kbps, ~0.190 bit/pixel
Аудио Rus: 48 kHz, MPEG Layer 2, 2 ch, ~192.00 kbps avg (Хабар)

Доп. информация: Данный сериал вместе с русским переводом появляется в сети впервые.
Первая серия - в WEBRip-е очень слабого качества, все остальные серии начиная со второй - в DVB.



Перевод и озвучка: Агенство "Хабар"
Релиз: Злобин Глеб

Без рекламных ВидеоАудио вставок. Локализированный видеоряд

01. Пантера (Panterwezen)
02. Мумия (Mummy)
03. Джин из лампы (Wensdjin)
04. Минотавр (Minotaurus)
05. Оборотень (Weerwolf)
06. Циклоп (Cycloop)
07. Тролль (Trol)
08. Сирена (Sirene)
09. Гоблин (Goblin)
10. Горгона (Gorgo)
11. Весёлый чертёнок (Spelduivel)
12. Ламия (Lamia)
13. Всадник апокалипсиса (Ruiter van de Apocalyps)
14. Бермаду (De Bermadoe)
15. Дриада (De Dryade)
16. Мистик / Дух триптиха (De triptiekgeest)
17. Домовой (Brownie)
18. Дракон (De Draak)
19. Верховный вампир (De Meestervampier)
20. Стикс (De Styx)
21. Станислем (De Stanislem)
22. Акса (De Haksa)
23. Волчица (De wolvin)
24. Сафнари (Safnari)



Общее
Идентификатор : 1 (0x1)
Полное имя : F:\Ночной дозор [DVB]\Ночной дозор [Хабар] (1 серия).ts
Формат : MPEG-TS
Размер файла : 318 Мбайт
Продолжительность : 25 м. 7 с.
Режим общего битрейта : Переменный
Общий поток : 1767 Кбит/сек
Видео
Идентификатор : 256 (0x100)
Идентификатор меню : 1 (0x1)
Формат : MPEG Video
Версия формата : Version 2
Профиль формата : Main@Main
Параметр BVOP формата : Да
Параметр матрицы формата : По умолчанию
Параметр GOP формата : M=3, N=150
Идентификатор кодека : 2
Продолжительность : 25 м. 7 с.
Вид битрейта : Переменный
Битрейт : 1486 Кбит/сек
Ширина : 720 пикселей
Высота : 400 пикселей
Соотношение сторон : 16:9
Частота кадров : 30,000 кадров/сек
Цветовое пространство : YUV
Субдискретизация насыщенности : 4:2:0
Битовая глубина : 8 бит
Тип развёртки : Прогрессивная
Метод сжатия : С потерями
Бит/(Пиксели*Кадры) : 0.172
Временной код первого кадра : 00:00:00:00
Оригинал временного кода : Group of pictures header
GOP, открыто/закрыто : Открыто
GOP, открыто/закрыто на первом кадре : Закрыто
Размер потока : 267 Мбайт (84%)
Аудио
Идентификатор : 257 (0x101)
Идентификатор меню : 1 (0x1)
Формат : MPEG Audio
Версия формата : Version 1
Профиль формата : Layer 2
Идентификатор кодека : 3
Продолжительность : 25 м. 7 с.
Вид битрейта : Постоянный
Битрейт : 192 Кбит/сек
Каналы : 2 канала
Частота : 44,1 КГц
Метод сжатия : С потерями
Размер потока : 34,5 Мбайт (11%)
Меню
Идентификатор : 4096 (0x1000)
Идентификатор меню : 1 (0x1)
Продолжительность : 25 м. 7 с.
Список : 256 (0x100) (MPEG Video) / 257 (0x101) (MPEG Audio)
Название сервиса : Service01
Поставщик сервиса : FFmpeg
Тип сервиса : digital television

Общее
Идентификатор : 1 (0x1)
Полное имя : F:\Ночной дозор [DVB]\Ночной дозор [Хабар] (2 серия).ts
Формат : MPEG-TS
Размер файла : 400 Мбайт
Продолжительность : 24 м. 51 с.
Режим общего битрейта : Переменный
Общий поток : 2252 Кбит/сек
Видео
Идентификатор : 67 (0x43)
Идентификатор меню : 1 (0x1)
Формат : AVC
Формат/Информация : Advanced Video Codec
Профиль формата : High@L3
Параметр CABAC формата : Да
Параметр RefFrames формата : 3 кадра
Параметр GOP формата : M=4, N=32
Идентификатор кодека : 27
Продолжительность : 24 м. 51 с.
Битрейт : 1946 Кбит/сек
Ширина : 720 пикселей
Высота : 576 пикселей
Соотношение сторон : 16:9
Частота кадров : 25,000 кадров/сек
Стандарт вещания : Component
Цветовое пространство : YUV
Субдискретизация насыщенности : 4:2:0
Битовая глубина : 8 бит
Тип развёртки : Чересстрочная
Метод сохранения типа развёртки : Раздельные поля
Порядок развёртки : Верхнее поле первое
Бит/(Пиксели*Кадры) : 0.188
Размер потока : 346 Мбайт (86%)
Цветовой диапазон : Limited
Основные цвета : BT.601 PAL
Характеристики трансфера : BT.470 System B, BT.470 System G
Коэффициенты матрицы : BT.470 System B, BT.470 System G
Аудио
Идентификатор : 68 (0x44)
Идентификатор меню : 1 (0x1)
Формат : MPEG Audio
Версия формата : Version 1
Профиль формата : Layer 2
Идентификатор кодека : 3
Продолжительность : 24 м. 51 с.
Вид битрейта : Постоянный
Битрейт : 192 Кбит/сек
Каналы : 2 канала
Частота : 48,0 КГц
Метод сжатия : С потерями
Задержка видео : -40 мс.
Размер потока : 34,1 Мбайт (9%)
Язык : English


1 серия









2-24 серии









Внимание! Раздача ведётся путём добавления новых серий; при каждом добавлении создаётся новый торрент. Чтобы начать докачку новой серии, пользователям необходимо сделать следующее:
(1) остановить скачивание,
(2) удалить старый торрент у себя из клиента (старые серии удалять не надо),
(3) скачать новый торрент и запустить его у себя в клиенте вместо старого, при этом указать клиенту путь в старую папку куда и должно происходить скачивание новых серий.

Ваш клиент при этом должен произвести хеширование (проверку) старой папки (если не производит сам - помогите ему сделать это), и будет докачивать только те серии которых у вас ещё нет. Старые серии при этом не удаляются, а продолжают раздаваться!

Eсли вы уже удалили старые серии, то предотвратить повторную закачку старых серий можно, отжав галочку в соответствующих местах при запуске нового торрента. По возможности, желательно не удалять старые серии как можно дольше, чтобы релизёр не столько продолжал раздавать старые серии, а смог сконцентрироваться на новых.





   Похожие торренты   Торрент   Размер 
В этой теме нет новых непрочитанных сообщений. Семейка Крудс. Начало, 1 сезон 1 серия / Dawn of the Croods (Дэн Милано) [2015, комедия, приключения, фэнтези, семейный, WEBRip] MVO

45 | 9

300.01 МБ

В этой теме нет новых непрочитанных сообщений. Ночной Дозор + Дневной Дозор: Дилогия (2004-2005) BDRip-AVC

407 | 52

4.7 ГБ

В этой теме нет новых непрочитанных сообщений. Ночной Дозор + Дневной Дозор: Дилогия (2004-2005) HDRip-AVC

89 | 2

1.46 ГБ

В этой теме нет новых непрочитанных сообщений. Ночной Дозор + Дневной Дозор: Дилогия (2004-2005) BDRip 1080p от FREEISLAND

102 | 24

15.9 ГБ

В этой теме нет новых непрочитанных сообщений. Люцифер, 3 сезон 1 серия из 22 / Lucifer [NewStudio] (Лен Уайзман) [2017, фэнтези, драма, криминал, WEBRip, P]

38 | 4

525.34 МБ

В этой теме нет новых непрочитанных сообщений. Люцифер, 3 сезон 1-24 серия из 24 / Lucifer [NewStudio] (Лен Уайзман) [2017, фэнтези, драма, криминал, WEBRip, P]

48 | 34

12.27 ГБ

В этой теме нет новых непрочитанных сообщений. Люцифер, 3 сезон 1-21 серия из 24 / Lucifer [NewStudio] (Лен Уайзман) [2017, фэнтези, драма, криминал, WEBRip, P]

13 | 10

10.73 ГБ




Вы не можете начинать темы
Вы не можете отвечать на сообщения
Вы не можете редактировать свои сообщения
Вы не можете удалять свои сообщения
Вы не можете добавлять вложения

Перейти:  
 Вход
ppkBB3cker v.2 © 2008-2014 @ PPK
[ Time : 0.051s | 18 Queries | GZIP : Off ]

cron