img image001 image001 image001 image001 image001 image001 image001 image001 image001 image001 image001 image001 image001 image001 image001 image001

Planets Sun Sun Sun
Статистика раздачи
Автор: Снежана | Размер: 3.93 ГБ | Добавлен: 16 май 2018
Раздают: 4    Качают: 4
Скачать торрент
Скачать торрент
Описание торрента

СообщениеДобавлено: 16 май 2018 

Выкуп / Ransom


Перевод: Профессиональный (многоголосый, закадровый) IdeaFilm
Субтитры: отсутствуют
Формат: WEB-DLRip, AVI, XviD, AC3
Страна: Канада, Франция
Режиссер: Франсуа Вель, Джеймс Дженн
Жанр: Драма, криминал, триллер
Всего серий: 13
Продолжительность: 6 x ~ 00:45:00
Год выпуска: 2018

В ролях: Люк Робертс, Сара Грин, Назнин Контрактор, Брэндон Джей МакЛарен, Дженесса Грант, Анна Хопкинс, Нил Напье, Александра Ордолис

Описание: Криминальная драма, рассказывающая историю одного из лучших профессиональных переговорщиков Эрика Бомонта, который вместе со своей командой спасает жизни людей, когда другие специалисты бессильны. Эрик понимает преступников лучше, чем они сами и использует знания человеческого поведения, чтобы решать самые сложные случаи похищения людей и захвата заложников. Несмотря на высокие ставки, Эрик отказывается прибегать к насилию, даже при столкновении с самыми опасными преступниками мира. В то время как Эрик лучший во всех профессиональных делах, он имеет сложные отношения с семьей, друзьями и коллегами.



Видео: 720x400 (16:9), 23.976 fps, XviD MPEG-4 ~1783 kbps avg, 0.258 bit/pixel
Аудио #1 Rus: 48 kHz, AC3 Dolby Digital, 3/2 (L,C,R,l,r) + LFE ch, ~384 kbps

Внимание, присутствует реклама!
Раздача ведется путем добавления новых серий.

Добавлена 6 серия.


Внимание! Раздача ведётся путём добавления новых серий; при каждом добавлении создаётся новый торрент. Чтобы начать докачку новой серии, пользователям необходимо сделать следующее:
(1) остановить скачивание,
(2) удалить старый торрент у себя из клиента (старые серии удалять не надо),
(3) скачать новый торрент и запустить его у себя в клиенте вместо старого, при этом указать клиенту путь в старую папку куда и должно происходить скачивание новых серий.

Ваш клиент при этом должен произвести хеширование (проверку) старой папки (если не производит сам - помогите ему сделать это), и будет докачивать только те серии которых у вас ещё нет. Старые серии при этом не удаляются, а продолжают раздаваться!

Eсли вы уже удалили старые серии, то предотвратить повторную закачку старых серий можно, отжав галочку в соответствующих местах при запуске нового торрента. По возможности, желательно не удалять старые серии как можно дольше, чтобы релизёр не столько продолжал раздавать старые серии, а смог сконцентрироваться на новых.



Video
ID : 0
Format : MPEG-4 Visual
Format profile : Advanced Simple@L5
Format settings, BVOP : 2
Format settings, QPel : No
Format settings, GMC : No warppoints
Format settings, Matrix : Default (H.263)
Muxing mode : Packed bitstream
Codec ID : XVID
Codec ID/Hint : XviD
Duration : 43 min 50 s
Bit rate : 1 783 kb/s
Width : 720 pixels
Height : 400 pixels
Display aspect ratio : 16:9
Frame rate : 23.976 (24000/1001) FPS
Color space : YUV
Chroma subsampling : 4:2:0
Bit depth : 8 bits
Scan type : Progressive
Compression mode : Lossy
Bits/(Pixel*Frame) : 0.258
Stream size : 559 MiB (82%)
Writing library : XviD 73

Audio
ID : 1
Format : AC-3
Format/Info : Audio Coding 3
Format settings, Endianness : Big
Codec ID : 2000
Duration : 43 min 50 s
Bit rate mode : Constant
Bit rate : 384 kb/s
Channel(s) : 6 channels
Channel positions : Front: L C R, Side: L R, LFE
Sampling rate : 48.0 kHz
Frame rate : 31.250 FPS (1536 SPF)
Bit depth : 16 bits
Compression mode : Lossy
Stream size : 120 MiB (18%)
Alignment : Aligned on interleaves
Interleave, duration : 42 ms (1.00 video frame)
Interleave, preload duratio : 512 ms
Service kind : Complete Main





   Похожие торренты   Торрент   Размер 
В этой теме нет новых непрочитанных сообщений. Выкуп, 2 сезон 1-6 серии из 13 / Ransom [IdeaFilm] (Франсуа Вель, Джеймс Дженн) [2018, драма, криминал, триллер, WEB-DLRip 720p, Р]

3 | 6

8.98 ГБ

В этой теме нет новых непрочитанных сообщений. Выкуп, 2 сезон 1-6 серии из 13 / Ransom [IdeaFilm] (Франсуа Вель, Джеймс Дженн) [2018, драма, криминал, триллер, WEB-DLRip 1080p, Р]

2 | 7

14.33 ГБ

В этой теме нет новых непрочитанных сообщений. База Куантико, 3 сезон 1 серии из 22 / Quantico [IdeaFilm] (Джошуа Сафран) [2018, триллер, драма, криминал, детектив, WEBRip, P]

5 | 5

591.56 МБ

В этой теме нет новых непрочитанных сообщений. База Куантико, 3 сезон 1 серии из 22 / Quantico [IdeaFilm] (Джошуа Сафран) [2018, триллер, драма, криминал, детектив, WEBRip 720p, P]

7 | 5

1.6 ГБ

В этой теме нет новых непрочитанных сообщений. База Куантико, 3 сезон 1 серии из 22 / Quantico [IdeaFilm] (Джошуа Сафран) [2018, триллер, драма, криминал, детектив, WEBRip 1080p, P]

7 | 4

2.34 ГБ

В этой теме нет новых непрочитанных сообщений. Мыслить как преступник, 11 сезон 1-12 серии из 23 / Criminal Minds [IdeaFilm] (Джефф Дэвис) [2015, триллер, драма, криминал, детектив, WEB-DLRip, P]

486 | 71

5 ГБ

В этой теме нет новых непрочитанных сообщений. Пожарная часть 19, 1 сезон 1-8 серия из 10 / Station 19 [IdeaFilm] (Пэрис Барклай, Джеймс Хэнлон, Зинга Стюарт) [2018, Боевик, триллер, драма, мелодрама, WEBRip, P]

4 | 7

4.62 ГБ




Вы не можете начинать темы
Вы не можете отвечать на сообщения
Вы не можете редактировать свои сообщения
Вы не можете удалять свои сообщения
Вы не можете добавлять вложения

Перейти:  
 Вход
ppkBB3cker v.2 © 2008-2014 @ PPK
[ Time : 0.028s | 15 Queries | GZIP : Off ]

cron