img image001 image001 image001 image001 image001 image001 image001 image001 image001 image001 image001 image001 image001 image001 image001 image001

Planets Sun Sun Sun
Статистика раздачи
Автор: Снежана | Размер: 20.98 ГБ | Добавлен: 16 май 2018
Раздают: 4    Качают: 0
Скачать торрент
Скачать торрент
Описание торрента

СообщениеДобавлено: 16 май 2018 

[b]Красивая нуна, что покупает мне еду / Pretty Noona Who Buys Me Food / Something in the Rain / Однажды под дождём [/b]
Оценка релиза: 
Перевод: любительский (двухголосый, закадровый) [SoftBox]
Субтитры: отсутствуют
Формат: HDTVRip 720р, MP4, AVC, AAC
Страна: Республика Корея
Режиссёр: Ан Пан Сок
Жанр: мелодрама
Всего серий: 16
Продолжительность: 14 x ~01:15:00
Год выпуска: 2018
В ролях: Сон Йе Чжин, Чон Хэ Ин, Чан Со Ён, Пак Хёк Квон, Гиль Хэ Ён, Со Чжон Ён, О Ман Сок, Ли Чжу Ён, Юн Чон Сок, Ви Ха Чжун, Ли Хва Рён, Чон Ю Джин, Чан Вон Хён и др.

Описание: Юн Джин А - супервайзер популярной сети кофейн в Сеуле. Она полностью поглощена работой, поэтому в свои 35 до сих пор не замужем. Однако главная героиня не отчаивается, живёт по принципу «пока всё хорошо, жизнь тоже хороша», да и любимый мужчина вот-вот должен позвать под венец.
Со Джун Хи, друг семьи Джин А, возвращается из-за границы, где проходил стажировку. Сейчас ему почти 30. За время отсутствия он вырос, окреп, возмужал и уже совсем не похож на незрелого мальчишку из её воспоминаний. Несмотря на разницу в возрасте и стереотипы пуританского воспитания, Джун Хи находит Джин А привлекательной и желанной молодой женщиной, ведь «красота - в глазах смотрящего»...


Рейтинг:


Видео: 1280x720 (16/9), 29.970 fps, AVC ~2802 kbps avg, 0.101 bit/pixel
Аудио: 48,0 kHz, AAC, 2 ch ~192.00 kbps avg

Доп. информация:
    16.05.2018 торрент-файл был обновлён: добавлены 13-14 серии.Озвучивание SoftBox на основе перевода ФСГ Bears.

















Общее
Полное имя : F:\Content\my-tfile.org_torrents\Pretty Noona Who Buys Me Food\[Озвучка SOFTBOX] Красивая нуна, что покупает мне еду 01 серия.mp4
Формат : MPEG-4
Профиль формата : Base Media / Version 2
Идентификатор кодека : mp42
Размер файла : 1,68 Гбайт
Продолжительность : 1 ч. 20 м.
Режим общего битрейта : Переменный
Общий поток : 2986 Кбит/сек
Название фильма : Untitled Project
Название фильма/Ещё : This video is about Untitled Project
Исполнитель : Kim Family
Дата кодирования : UTC 2018-04-12 21:26:43
Дата пометки : UTC 2018-04-12 21:41:42

Видео
Идентификатор : 2
Формат : AVC
Формат/Информация : Advanced Video Codec
Профиль формата :
Параметр CABAC формата : Да
Параметр ReFrames формата : 2 кадра
Параметр GOP формата : M=2, N=30
Идентификатор кодека : avc1
Идентификатор кодека/Информация : Advanced Video Coding
Продолжительность : 1 ч. 20 м.
Вид битрейта : Переменный
Битрейт : 2802 Кбит/сек
Максимальный битрейт : 768 Кбит/сек
Ширина : 1280 пикселей
Высота : 720 пикселей
Соотношение сторон : 16:9
Режим частоты кадров : Постоянный
Частота кадров : 29,970 кадров/сек
Цветовое пространство : YUV
Субдискретизация насыщенности : 4:2:0
Битовая глубина : 8 бит
Тип развёртки : Прогрессивная
Бит/(Пиксели*Кадры) : 0.101
Размер потока : 1,58 Гбайт (94%)
Заголовок : Core Media Video
Дата кодирования : UTC 2018-04-12 21:26:44
Дата пометки : UTC 2018-04-12 21:41:42
Основные цвета : BT.709
Характеристики трансфера : BT.709
Коэффициенты матрицы : BT.709

Аудио
Идентификатор : 1
Формат : AAC
Формат/Информация : Advanced Audio Codec
Профиль формата : LC
Идентификатор кодека : 40
Продолжительность : 1 ч. 20 м.
Продолжительность оригинала : 1 ч. 20 м.
Вид битрейта : Постоянный
Битрейт : 180 Кбит/сек
Номинальный битрейт : 192 Кбит/сек
Каналы : 2 канала
Расположение каналов : Front: L R
Частота : 48,0 КГц
Метод сжатия : С потерями
Размер потока : 103 Мбайт (6%)
Размер потока оригинала : 103 Мбайт (6%)
Заголовок : Core Media Audio
Язык : Russian
Дата кодирования : UTC 2018-04-12 21:26:44
Дата пометки : UTC 2018-04-12 21:41:42


Внимание! Раздача ведётся путём добавления новых серий; при каждом добавлении создаётся новый торрент. Чтобы начать докачку новой серии, пользователям необходимо сделать следующее:
(1) остановить скачивание,
(2) удалить старый торрент у себя из клиента (старые серии удалять не надо),
(3) скачать новый торрент и запустить его у себя в клиенте вместо старого, при этом указать клиенту путь в старую папку куда и должно происходить скачивание новых серий.

Ваш клиент при этом должен произвести хеширование (проверку) старой папки (если не производит сам - помогите ему сделать это), и будет докачивать только те серии которых у вас ещё нет. Старые серии при этом не удаляются, а продолжают раздаваться!

Eсли вы уже удалили старые серии, то предотвратить повторную закачку старых серий можно, отжав галочку в соответствующих местах при запуске нового торрента. По возможности, желательно не удалять старые серии как можно дольше, чтобы релизёр не столько продолжал раздавать старые серии, а смог сконцентрироваться на новых.





   Похожие торренты   Торрент   Размер 
В этой теме нет новых непрочитанных сообщений. Красивая нуна, что покупает мне еду / Однажды под дождём, 1 сезон 1-8 серии из 16 / Pretty Noona Who Buys Me Food / Something in the Rain [SoftBox] (Ан Пан Сок) [2018, мелодрама, HDTVRip 720р, L2]

2 | 0

12.31 ГБ

В этой теме нет новых непрочитанных сообщений. Среда 15:30, 1 сезон 1-16 серии из 16 / Suyoil Ohu Sesi Samsibbun / Wednesday 3:30 p.m. [SOFTBOX] (Чхве Хён Джун) [2017, мелодрама, комедия, HDTVRip-AVC, L2]

0 | 0

3.18 ГБ

В этой теме нет новых непрочитанных сообщений. Школа 2017, 1 сезон 1-2 серии из 16 / Hakgyo 2017 / School 2017 [SOFTBOX] (Чжин Сок Пак) [2017, мелодрама, комедия, HDTVRip-AVC, L2]

5 | 0

1.89 ГБ

В этой теме нет новых непрочитанных сообщений. Милые обманщицы, 6 сезон 1-12 серии из 20 / Pretty Little Liars [NewStudio] (Лиз Фридлендер) [2015, триллер, мелодрама, детектив, WEB-DLRip, P]

22 | 49

6.45 ГБ

В этой теме нет новых непрочитанных сообщений. Милые обманщицы, 6 сезон 1-14 серии из 20 / Pretty Little Liars [NewStudio] (Лиз Фридлендер) [2015-2016, триллер, мелодрама, детектив, WEB-DLRip, P]

24 | 81

7.52 ГБ

В этой теме нет новых непрочитанных сообщений. Искушение / Радуга любви (1 сезон 1-19 серии из 24) (Игорь Забара, Сергей Терещук) [2018, мелодрама, HDTVRip]

3 | 6

10.03 ГБ

В этой теме нет новых непрочитанных сообщений. Круг, 1 сезон 1-10 серии из 12 / Sseokeul [SoftBox] (Мин Чжи Ки) [2017, фантастика, триллер, драма, HDTVRip-AVC, L2]

48 | 16

10.36 ГБ




Вы не можете начинать темы
Вы не можете отвечать на сообщения
Вы не можете редактировать свои сообщения
Вы не можете удалять свои сообщения
Вы не можете добавлять вложения

Перейти:  
 Вход
ppkBB3cker v.2 © 2008-2014 @ PPK
[ Time : 0.053s | 16 Queries | GZIP : Off ]

cron