img image001 image001 image001 image001 image001 image001 image001 image001 image001 image001 image001 image001 image001 image001 image001 image001

Planets Sun Sun Sun
Статистика раздачи
Автор: Снежана | Размер: 35.6 ГБ | Добавлен: 16 май 2018
Раздают: 4    Качают: 8
Скачать торрент
Скачать торрент
Описание торрента

СообщениеДобавлено: 16 май 2018 

Мистер Булл / Bull

Перевод: Профессиональный (многоголосый, закадровый) IdeaFilm
Субтитры: отсутствуют
Формат: WEBRip, MKV, h.264, AC3
Страна: США
Режиссер: Дуглас Арниокоски, Дэннис Смит, Ян Элиасберг
Жанр: драма, комедия, криминал
Всего серий: 23
Продолжительность: 22 х ~00:45:00
Год выпуска: 2017

В ролях: Майкл Уэтерли, Фредди Родригес, Женева Карр, Джейми Ли Киршнер, Анна Люсия Аттанасио, Кристофер Нил Джексон

Описание: Доктор Джейсон Булл очаровательный и дерзкий основатель успешной фирмы судебного консалтинга. Вместе со своей командой при помощи науки и интуиции он пытается понять присяжных адвокатов, свидетелей и ответчиков и построить такие сценарии судебных процессов, которые помогли бы его клиентам выиграть.

Рейтинг на:

Видео: 1280x720 (16/9), 23,976 fps, AVC (х264), , ~4437 kbps avg, 0.201 bit/pixel
Аудио #1 Rus: :48 kHz, AC3 Dolby Digital, 3/2 (L,C,R,l,r) + LFE ch, 384 kbps
Аудио #1 Eng: :48 kHz, AC3 Dolby Digital, 3/2 (L,C,R,l,r) + LFE ch, 384 kbps

Внимание, присутствует реклама!


Внимание! Раздача ведётся путём добавления новых серий; при каждом добавлении создаётся новый торрент. Чтобы начать докачку новой серии, пользователям необходимо сделать следующее:
(1) остановить скачивание,
(2) удалить старый торрент у себя из клиента (старые серии удалять не надо),
(3) скачать новый торрент и запустить его у себя в клиенте вместо старого, при этом указать клиенту путь в старую папку куда и должно происходить скачивание новых серий.

Ваш клиент при этом должен произвести хеширование (проверку) старой папки (если не производит сам - помогите ему сделать это), и будет докачивать только те серии которых у вас ещё нет. Старые серии при этом не удаляются, а продолжают раздаваться!

Eсли вы уже удалили старые серии, то предотвратить повторную закачку старых серий можно, отжав галочку в соответствующих местах при запуске нового торрента. По возможности, желательно не удалять старые серии как можно дольше, чтобы релизёр не столько продолжал раздавать старые серии, а смог сконцентрироваться на новых.



Общее
Уникальный идентификатор : 192479004371859286993893945751181321241 (0x90CE1B99FF4774F3A6C495D61845E419)
Полное имя : F:\IDEAFILM\Bull.2017.S02.WEBRip.720p\Bull.2017.S02E01.WEBRip.720p-IDEAFILM.mkv
Формат : Matroska
Версия формата : Version 4 / Version 2
Размер файла : 1,60 Гбайт
Продолжительность : 43 м. 53 с.
Общий поток : 5205 Кбит/сек
Дата кодирования : UTC 2017-09-28 12:38:38
Программа кодирования : mkvmerge v12.0.0 ('Trust / Lust') 64bit
Библиотека кодирования : libebml v1.3.4 + libmatroska v1.4.5

Видео
Идентификатор : 1
Формат : AVC
Формат/Информация : Advanced Video Codec
Профиль формата :
Параметр CABAC формата : Да
Параметр ReFrames формата : 3 кадра
Идентификатор кодека : V_MPEG4/ISO/AVC
Продолжительность : 43 м. 52 с.
Битрейт : 4437 Кбит/сек
Ширина : 1280 пикселей
Высота : 720 пикселей
Соотношение сторон : 16:9
Режим частоты кадров : Постоянный
Частота кадров : 23,976 (24000/1001) кадра/сек
Стандарт вещания : NTSC
Цветовое пространство : YUV
Субдискретизация насыщенности : 4:2:0
Битовая глубина : 8 бит
Тип развёртки : Прогрессивная
Бит/(Пиксели*Кадры) : 0.201
Размер потока : 1,36 Гбайт (85%)
Язык : English
Default : Да
Forced : Нет
Цветовой диапазон : Limited
Основные цвета : BT.709
Характеристики трансфера : BT.709
Коэффициенты матрицы : BT.709

Аудио #1
Идентификатор : 2
Формат : AC-3
Формат/Информация : Audio Coding 3
Расширение режима : CM (complete main)
Параметр Endianness формата : Big
Идентификатор кодека : A_AC3
Продолжительность : 43 м. 53 с.
Вид битрейта : Постоянный
Битрейт : 384 Кбит/сек
Каналы : 6 каналов
Расположение каналов : Front: L C R, Side: L R, LFE
Частота : 48,0 КГц
Частота кадров : 31,250 кадров/сек (1536 spf)
Метод сжатия : С потерями
Размер потока : 121 Мбайт (7%)
Заголовок : IDEAFilam
Язык : Russian
Default : Да
Forced : Нет

Аудио #2
Идентификатор : 3
Формат : AC-3
Формат/Информация : Audio Coding 3
Расширение режима : CM (complete main)
Параметр Endianness формата : Big
Идентификатор кодека : A_AC3
Продолжительность : 43 м. 44 с.
Вид битрейта : Постоянный
Битрейт : 384 Кбит/сек
Каналы : 6 каналов
Расположение каналов : Front: L C R, Side: L R, LFE
Частота : 48,0 КГц
Частота кадров : 31,250 кадров/сек (1536 spf)
Метод сжатия : С потерями
Задержка видео : 9 с. 0 мс.
Размер потока : 120 Мбайт (7%)
Язык : English
Default : Нет
Forced : Нет







   Похожие торренты   Торрент   Размер 
В этой теме нет новых непрочитанных сообщений. Мистер Булл / Бык, 2 сезон 1-2 серии из 23 / Bull [IdeaFilm] (Дуглас Арниокоски, Дэннис Смит, Ян Элиасберг) [2017, драма, комедия, криминал, WEBRip 720p, P]

0 | 6

3.2 ГБ

В этой теме нет новых непрочитанных сообщений. Мистер Булл / Бык, 2 сезон 1-2 серии из 23 / Bull [IdeaFilm] (Дуглас Арниокоски, Дэннис Смит, Ян Элиасберг) [2017, драма, комедия, криминал, WEBRip, P]

3 | 6

1.16 ГБ

В этой теме нет новых непрочитанных сообщений. Мистер Булл / Бык, 2 сезон 1-22 серии из 22 / Bull [IdeaFilm] (Дуглас Арниокоски, Дэннис Смит, Ян Элиасберг) [2017, драма, комедия, криминал, WEBRip, P]

5 | 7

12.87 ГБ

В этой теме нет новых непрочитанных сообщений. Мистер Булл / Бык, 2 сезон 1-22 серии из 22 / Bull [IdeaFilm] (Дуглас Арниокоски, Дэннис Смит, Ян Элиасберг) [2017, драма, комедия, криминал, WEBRip 1080p, P]

2 | 8

52.46 ГБ

В этой теме нет новых непрочитанных сообщений. Мистер Булл / Бык, 2 сезон 1-2 серии из 23 / Bull [IdeaFilm] (Дуглас Арниокоски, Дэннис Смит, Ян Элиасберг) [2017, драма, комедия, криминал, WEBRip 1080p, P]

1 | 8

5.12 ГБ

В этой теме нет новых непрочитанных сообщений. Морская Полиция: Спецотдел, 15 сезон 1-2 серии из 24 / NCIS: Naval Criminal Investigative Service [IdeaFilm] (Дэннис Смит, Тони Уормби, Терренс О’Хара) [2017, драма, криминал, детектив, WEBRip 720p, Р] / Морская полиция

5 | 4

3.19 ГБ

В этой теме нет новых непрочитанных сообщений. Морская Полиция: Спецотдел, 15 сезон 1-2 серии из 24 / NCIS: Naval Criminal Investigative Service [IdeaFilm] (Дэннис Смит, Тони Уормби, Терренс О’Хара) [2017, драма, криминал, детектив, WEBRip, Р] / Морская полиция

9 | 4

1.15 ГБ




Вы не можете начинать темы
Вы не можете отвечать на сообщения
Вы не можете редактировать свои сообщения
Вы не можете удалять свои сообщения
Вы не можете добавлять вложения

Перейти:  
 Вход
ppkBB3cker v.2 © 2008-2014 @ PPK
[ Time : 0.061s | 18 Queries | GZIP : Off ]

cron