img image001 image001 image001 image001 image001 image001 image001 image001 image001 image001 image001 image001 image001 image001 image001 image001

Planets Sun Sun Sun
Статистика раздачи
Автор: Снежана | Размер: 15.86 ГБ | Добавлен: 16 май 2018
Раздают: 11    Качают: 9
Скачать торрент
Скачать торрент
Описание торрента

СообщениеДобавлено: 16 май 2018 

Обман / Deception

Перевод: Профессиональный (многоголосый, закадровый) IdeaFilm
Субтитры: отсутствуют
Формат: WEBRip, MKV, h.264, AC3
Страна: США
Режиссер: Дэвид Наттер, Роб Шейденгланц, Сильвер Три
Жанр: драма
Всего серий: 13
Продолжительность: 10х ~00:45:00
Год выпуска: 2018

В ролях: Лайла Робинс, Роберт Рид Мерфи, Рубен Наварро, Амори Ноласко, Ильфенеш Хадера, Джастин Чон, Ленора Кричлоу, Джо Кэрролл, Дэнни Корбо, Сонни Корбо

Описание: После скандального завершения карьеры известный иллюзионист Кэмерон Блэк начинает помогать ФБР раскрывать необычные преступления, используя свои знания и умения.

Рейтинг на:

Видео: 1280x720 (16/9), 23,976 fps, AVC (х264), , ~4500 kbps avg, 0.204 bit/pixel
Аудио #1 Rus: :48 kHz, AC3 Dolby Digital, 3/2 (L,C,R,l,r) + LFE ch, ~384 kbps
Аудио #1 Eng: :48 kHz, AC3 Dolby Digital, 3/2 (L,C,R,l,r) + LFE ch, ~384 kbps

Внимание, присутствует реклама!


Внимание! Раздача ведётся путём добавления новых серий; при каждом добавлении создаётся новый торрент. Чтобы начать докачку новой серии, пользователям необходимо сделать следующее:
(1) остановить скачивание,
(2) удалить старый торрент у себя из клиента (старые серии удалять не надо),
(3) скачать новый торрент и запустить его у себя в клиенте вместо старого, при этом указать клиенту путь в старую папку куда и должно происходить скачивание новых серий.

Ваш клиент при этом должен произвести хеширование (проверку) старой папки (если не производит сам - помогите ему сделать это), и будет докачивать только те серии которых у вас ещё нет. Старые серии при этом не удаляются, а продолжают раздаваться!

Eсли вы уже удалили старые серии, то предотвратить повторную закачку старых серий можно, отжав галочку в соответствующих местах при запуске нового торрента. По возможности, желательно не удалять старые серии как можно дольше, чтобы релизёр не столько продолжал раздавать старые серии, а смог сконцентрироваться на новых.



Общее
Уникальный идентификатор : 210698119198745017775772398767884421288 (0x9E82FB50A1BCBE90BC109B868A0F48A8)
Полное имя : I:\IDEAFILM\Deception.S01.WEBRip.720p\Deception.S01E01.WEBRip.720p-IdeaFilm.mkv
Формат : Matroska
Версия формата : Version 4 / Version 2
Размер файла : 1,59 Гбайт
Продолжительность : 43 м. 45 с.
Общий поток : 5206 Кбит/сек
Дата кодирования : UTC 2018-03-12 13:58:38
Программа кодирования : mkvmerge v12.0.0 ('Trust / Lust') 64bit
Библиотека кодирования : libebml v1.3.4 + libmatroska v1.4.5

Видео
Идентификатор : 1
Формат : AVC
Формат/Информация : Advanced Video Codec
Профиль формата :
Настройки формата : CABAC / 4 Ref Frames
Параметр CABAC формата : Да
Параметр RefFrames формата : 4 кадра
Идентификатор кодека : V_MPEG4/ISO/AVC
Продолжительность : 43 м. 45 с.
Битрейт : 4500 Кбит/сек
Ширина : 1280 пикселей
Высота : 720 пикселей
Соотношение сторон : 16:9
Режим частоты кадров : Постоянный
Частота кадров : 23,976 (24000/1001) кадра/сек
Цветовое пространство : YUV
Субдискретизация насыщенности : 4:2:0
Битовая глубина : 8 бит
Тип развёртки : Прогрессивная
Бит/(Пиксели*Кадры) : 0.204
Размер потока : 1,36 Гбайт (85%)
Библиотека кодирования : x264 core 130 r2273 b3065e6
Настройки программы : cabac=1 / ref=3 / deblock=1:0:0 / analyse=0x3:0x113 / me=hex / subme=1 / psy=1 / psy_rd=1.00:0.00 / mixed_ref=1 / me_range=16 / chroma_me=1 / trellis=1 / 8x8dct=1 / cqm=0 / deadzone=21,11 / fast_pskip=1 / chroma_qp_offset=0 / threads=24 / lookahead_threads=4 / sliced_threads=0 / nr=0 / decimate=1 / interlaced=0 / bluray_compat=0 / constrained_intra=0 / bframes=4 / b_pyramid=2 / b_adapt=1 / b_bias=0 / direct=1 / weightb=1 / open_gop=0 / weightp=2 / keyint=250 / keyint_min=23 / scenecut=40 / intra_refresh=0 / rc_lookahead=40 / rc=abr / mbtree=1 / bitrate=4500 / ratetol=1.0 / qcomp=0.60 / qpmin=0 / qpmax=69 / qpstep=4 / ip_ratio=1.40 / aq=1:1.00
Default : Да
Forced : Нет

Аудио #1
Идентификатор : 2
Формат : AC-3
Формат/Информация : Audio Coding 3
Идентификатор кодека : A_AC3
Продолжительность : 43 м. 45 с.
Вид битрейта : Постоянный
Битрейт : 384 Кбит/сек
Каналы : 6 каналов
Расположение каналов : Front: L C R, Side: L R, LFE
Частота : 48,0 КГц
Частота кадров : 31,250 кадров/сек (1536 SPF)
Битовая глубина : 16 бит
Метод сжатия : С потерями
Размер потока : 120 Мбайт (7%)
Заголовок : IdeaFilm
Язык : Russian
ServiceKind/String : Complete Main
Default : Да
Forced : Нет

Аудио #2
Идентификатор : 3
Формат : AC-3
Формат/Информация : Audio Coding 3
Идентификатор кодека : A_AC3
Продолжительность : 43 м. 5 с.
Битрейт : 384 Кбит/сек
Каналы : 6 каналов
Частота : 48,0 КГц
Частота кадров : 31,250 кадров/сек (1536 SPF)
Метод сжатия : С потерями
Размер потока : 118 Мбайт (7%)
Язык : English
Default : Нет
Forced : Нет







   Похожие торренты   Торрент   Размер 
В этой теме нет новых непрочитанных сообщений. Обман, 1 сезон 1-10 серии из 13 / Deception [IdeaFilm] (Дэвид Наттер, Роб Шейденгланц, Сильвер Три) [2018, драма, WEBRip, P]

18 | 28

5.77 ГБ

В этой теме нет новых непрочитанных сообщений. Обман, 1 сезон 1-10 серии из 13 / Deception [IdeaFilm] (Дэвид Наттер, Роб Шейденгланц, Сильвер Три) [2018, драма, WEBRip 1080p, P]

4 | 9

23.3 ГБ

В этой теме нет новых непрочитанных сообщений. Константин, 1 сезон 1-5 серии из 10 / Constantine: City of Demons (Дэвид С. Гойер, Сэм Реджистер, Сара Шечтер) [2018, Мультфильм, драма, ужасы, WEBRip 720p] MVO

2 | 0

1.13 ГБ

В этой теме нет новых непрочитанных сообщений. Реанимация / Чёрный код, 3 сезон 1 серия из 16 / Code Black [IdeaFilm] (Ли Роуз, Дэвид Семел, Адам Кэйн) [2018, драма, WEBRip 720p, P]

18 | 5

1.6 ГБ

В этой теме нет новых непрочитанных сообщений. Власть в ночном городе, 4 сезон 1-6 серии из 10 / Power [IdeaFilm] (Джон Дэвид Коулз, Энтони Хемингуэй, Джордж Тиллман мл.) [2017, драма, WEBRip 720p, Р]

4 | 6

19.17 ГБ

В этой теме нет новых непрочитанных сообщений. Власть в ночном городе, 4 сезон 1-10 серии из 10 / Power [IdeaFilm] (Джон Дэвид Коулз, Энтони Хемингуэй, Джордж Тиллман мл.) [2017, драма, WEBRip 720p, Р]

6 | 9

32.1 ГБ

В этой теме нет новых непрочитанных сообщений. Власть в ночном городе, 4 сезон 1-9 серии из 10 / Power [IdeaFilm] (Джон Дэвид Коулз, Энтони Хемингуэй, Джордж Тиллман мл.) [2017, драма, WEBRip 720p, Р]

8 | 9

28.86 ГБ




Вы не можете начинать темы
Вы не можете отвечать на сообщения
Вы не можете редактировать свои сообщения
Вы не можете удалять свои сообщения
Вы не можете добавлять вложения

Перейти:  
 Вход
ppkBB3cker v.2 © 2008-2014 @ PPK
[ Time : 0.034s | 16 Queries | GZIP : Off ]

cron